PROGRESS.Wrestling.2019.03.10.Chapter.86.WEB.HEVC.x265-WH

PROGRESS.Wrestling.2019.03.10.Chapter.86.WEB.HEVC.x265-WH

General
Complete name : PROGRESS.Wrestling.2019.03.10.Chapter.86.WEB.HEVC.x265-WH.mp4
Format : MPEG-4
Format profile : QuickTime
Codec ID : qt
File size : 1.31 GiB
Duration : 2h 42mn
Overall bit rate : 1 154 Kbps
Writing application : Lavf55.33.100

Video
ID : 1
Format : hev1
Codec ID : hev1
Duration : 2h 42mn
Bit rate mode : Variable
Bit rate : 1 020 Kbps
Width : 712 pixels
Height : 400 pixels
Display aspect ratio : 16:9
Frame rate mode : Constant
Frame rate : 25.000 fps
Bits/(Pixel*Frame) : 0.143
Stream size : 1.16 GiB (88%)
Language : English

Audio
ID : 2
Format : AAC
Format/Info : Advanced Audio Codec
Format profile : LC
Codec ID : 40
Duration : 2h 42mn
Bit rate mode : Constant
Bit rate : 128 Kbps
Channel(s) : 2 channels
Channel positions : Front: L R
Sampling rate : 44.1 KHz
Compression mode : Lossy
Stream size : 149 MiB (11%)
Language : English

https://1fichier.com/?eidijzebnxdr1o5iq09h
https://anonfile.com/Z31fh7T3m7
https://ddl.to/g1x9ukmxluc5
http://dl.free.fr/iUW6Fsr3J
https://filerio.in/ins0t9x83xj2
http://filestore.to/?d=D34NOF7WQW

Leave a Reply

Your email address will not be published.