PFL 8 Playoffs 2019 Live at the Mandalay Bay Events Center

PFL 8 Playoffs 2019 Live at the Mandalay Bay Events Center in Las Vegas

dOWNLOAD PFL 8 Playoffs 2019 Live at the Mandalay Bay Events Center in Las Vegas

General
Complete name : PFL8 Playoffs 2019 Live at the Mandalay Bay Events Center in Las Vegas.mp4
Format : MPEG-4
Format profile : Base Media
Codec ID : isom
File size : 1.44 GiB
Duration : 5h 47mn
Overall bit rate : 591 Kbps
Writing application : Lavf58.12.100

Video
ID : 1
Format : AVC
Format/Info : Advanced Video Codec
Format profile : [email protected]
Format settings, CABAC : Yes
Format settings, ReFrames : 3 frames
Codec ID : avc1
Codec ID/Info : Advanced Video Coding
Duration : 5h 47mn
Bit rate mode : Variable
Bit rate : 455 Kbps
Width : 640 pixels
Height : 360 pixels
Display aspect ratio : 16:9
Frame rate mode : Constant
Frame rate : 29.970 fps
Color space : YUV
Chroma subsampling : 4:2:0
Bit depth : 8 bits
Scan type : Progressive
Bits/(Pixel*Frame) : 0.066
Stream size : 1.11 GiB (77%)
Color primaries : BT.709-5, BT.1361, IEC 61966-2-4, SMPTE RP177
Transfer characteristics : BT.709-5, BT.1361
Matrix coefficients : BT.709-5, BT.1361, IEC 61966-2-4 709, SMPTE RP177

Audio
ID : 2
Format : AAC
Format/Info : Advanced Audio Codec
Format profile : LC
Codec ID : 40
Duration : 5h 47mn
Bit rate mode : Constant
Bit rate : 128 Kbps
Channel(s) : 2 channels
Channel positions : Front: L R
Sampling rate : 44.1 KHz
Compression mode : Lossy
Stream size : 319 MiB (22%)

4downfile

https://4downfile.org/wuissy031djo

clicknupload
https://clicknupload.org/75eylufaorw8

dropapk
https://dropapk.to/msej3g08lvsn

earn4files
https://earn4files.com/2753ab55ynmi

fileup
https://fileup.cc/36dutc0eu6iq

nitroflare
http://nitroflare.com/view/CADCF4455D97609

rapidgator
https://rapidgator.net/file/695992d5491a3c5323bd9feacd3eaa1d

upload
https://upload.ac/5aryy75wpy1c

uploadgig
https://uploadgig.com/file/download/11B553dcF6963f76

6 Comments on “PFL 8 Playoffs 2019 Live at the Mandalay Bay Events Center”

  1. Thanks for the response. I think there is a 720p release but I don’t do torrents. PFL.19.Las.Vegas.PFL.8.2019.Playoffs.720p.WEB.DL.x264-ThS

Leave a Reply

Your email address will not be published. Required fields are marked *