PFL 2019 2 720p WEB-DL x264

PFL 2019 2 720p WEB-DL x264

PFL 2019 2 720p WEB-DL x264

Name: PFL 2019 #2 720p WEB-DL x264
Description:



General
Complete name               : PFL 2019 #2 720p WEB-DL x264.mp4
Format                      : MPEG-4
Codec ID                    : isom (isom/iso2/avc1/mp41)
File size                   : 5.31 GiB
Duration                    : 4 h 52 min
Overall bit rate            : 2 601 kb/s
Writing application         : Lavf57.71.100

Video
Format                      : AVC
Format profile              : [email protected]
Codec ID/Info               : Advanced Video Coding
Duration                    : 4 h 52 min
Bit rate                    : 2 480 kb/s
Width                       : 1 280 pixels
Height                      : 720 pixels
Display aspect ratio        : 16:9
Frame rate                  : 29.970 (30000/1001) FPS
Stream size                 : 5.07 GiB (95%)

Audio
Format                      : AAC LC
Codec ID                    : mp4a-40-2
Duration                    : 4 h 52 min
Bit rate                    : 109 kb/s
Channel(s)                  : 2 channels
Channel layout              : L R
Sampling rate               : 48.0 kHz
Stream size                 : 228 MiB (4%)

https://1fichier.com/?phxx6gsxdyu5wdkkicz5
https://anonfile.com/J4q3G6s2ne
https://bayfiles.com/iar4G2s9n7
https://bitster.cz/file/a242a0
http://dl.free.fr/eevZs7eCk
https://file.bz/K1rdG0s4na
https://filerio.in/m2w0m4e95u1q
https://filescdn.net/mykc8qdinl7b
https://multiup.org/download/57834a0190df3346f9b6be3e31720333
http://nitroflare.com/view/5814C5D72CA04A1
https://openload.co/f/L0fsG8cFSrg
https://turbobit.net/1q2n2spavoj2.html
https://uploadgig.com/file/download/63c0726938A0fc99

Leave a Reply

Your email address will not be published.