PFL 20 Las Vegas PFL 9 2019 Playoffs WEBRIP x264-WH

PFL 20 Las Vegas PFL 9 2019 Playoffs WEBRIP x264-WH

dOWNLOAD PFL 20 Las Vegas PFL 9 2019 Playoffs WEBRIP x264-WH

PFL 20 Las Vegas PFL 9 2019 Playoffs WEBRIP

General
Complete name : PFL.20.Las.Vegas.PFL.9.2019.Playoffs.WEBRIP.x264-WH.mp4
Format : MPEG-4
Format profile : Base Media
Codec ID : isom
File size : 3.59 GiB
Duration : 6h 27mn
Overall bit rate : 1 328 Kbps
Encoded date : UTC 2019-09-26 20:46:25
Tagged date : UTC 2019-09-26 20:46:25
Writing application : Lavf56.15.102

Video
ID : 1
Format : AVC
Format/Info : Advanced Video Codec
Format profile : [email protected]
Format settings, CABAC : No
Format settings, ReFrames : 2 frames
Codec ID : avc1
Codec ID/Info : Advanced Video Coding
Duration : 6h 27mn
Bit rate mode : Variable
Bit rate : 1 200 Kbps
Width : 712 pixels
Height : 400 pixels
Display aspect ratio : 16:9
Frame rate mode : Constant
Frame rate : 29.970 fps
Color space : YUV
Chroma subsampling : 4:2:0
Bit depth : 8 bits
Scan type : Progressive
Bits/(Pixel*Frame) : 0.141
Stream size : 3.23 GiB (90%)
Writing library : x264 core 142
Language : English
Encoded date : UTC 2019-09-26 20:46:25
Tagged date : UTC 2019-09-26 20:46:25

Audio
ID : 2
Format : AAC
Format/Info : Advanced Audio Codec
Format profile : LC
Codec ID : 40
Duration : 6h 27mn
Bit rate mode : Variable
Bit rate : 126 Kbps
Maximum bit rate : 128 Kbps
Channel(s) : 2 channels
Channel positions : Front: L R
Sampling rate : 44.1 KHz
Compression mode : Lossy
Stream size : 350 MiB (10%)
Language : English
Encoded date : UTC 2019-09-26 20:46:25
Tagged date : UTC 2019-09-26 20:46:25

dropapk

https://dropapk.to/k5th1w5qnw2n

fileup
https://fileup.cc/x06dccn6quuz

nitroflare
http://nitroflare.com/view/A21D8159F011E7E

rapidgator
https://rapidgator.net/file/c3dc32dd73908ddd60daeeb3f43514da

4downfiles

https://4downfiles.co/kck4qsa8f808
https://4downfiles.co/m9el811ky054
https://4downfiles.co/bmkpfqlfi7jc
https://4downfiles.co/ydsdng0ulv2u

clicknupload
https://clicknupload.org/br1mdk4k22hp
https://clicknupload.org/ljxupjldmywi
https://clicknupload.org/a4j9n7ktwffv
https://clicknupload.org/7wjr9bx6wbvz

dropapk
https://dropapk.to/cvgrztf8uh8o
https://dropapk.to/g5qq43l322hh
https://dropapk.to/g3ibcgtt3wpg
https://dropapk.to/djv7yib1fvjx

earn4files
https://earn4files.com/zog4lrrgr2vz
https://earn4files.com/onxx3ekp72q3
https://earn4files.com/dswqacylzo53
https://earn4files.com/ylw3w5bvmstq

Leave a Reply

Your email address will not be published. Required fields are marked *