PFL 18 Las Vegas PFL 7 2019 Playoffs 540p

PFL 18 Las Vegas PFL 7 2019 Playoffs 540p WEBRIP x264-WH

dOWNLOAD PFL 18 Las Vegas PFL 7 2019 Playoffs

PFL 18 Las Vegas PFL 7 2019 Playoffs 720p

FULL EVENT = PRELIMES + MAIN CARD

General
Complete name                    : 
PFL.18.Las.Vegas.PFL.7.2019.Playoffs.540p.WEBRIP.x264-WH.mp4
Format                           : MPEG-4
Format profile                   : Base Media
Codec ID                         : isom
File size                        : 2.94 GiB
Duration                         : 5h 15mn
Overall bit rate                 : 1 333 Kbps
Encoded date                     : UTC 2019-09-26 20:46:25
Tagged date                      : UTC 2019-09-26 20:46:25
Writing application              : Lavf56.15.102

Video
ID                               : 1
Format                           : AVC
Format/Info                      : Advanced Video Codec
Format profile                   : [email protected]
Format settings, CABAC           : No
Format settings, ReFrames        : 2 frames
Codec ID                         : avc1
Codec ID/Info                    : Advanced Video Coding
Duration                         : 5h 15mn
Bit rate mode                    : Variable
Bit rate                         : 1 200 Kbps
Width                            : 960 pixels
Height                           : 540 pixels
Display aspect ratio             : 16:9
Frame rate mode                  : Constant
Frame rate                       : 25.000 fps
Color space                      : YUV
Chroma subsampling               : 4:2:0
Bit depth                        : 8 bits
Scan type                        : Progressive
Bits/(Pixel*Frame)               : 0.093
Stream size                      : 2.64 GiB (90%)
Writing library                  : x264 core 142
Language                         : English
Encoded date                     : UTC 2019-09-26 20:46:25
Tagged date                      : UTC 2019-09-26 20:46:25

Audio
ID                               : 2
Format                           : AAC
Format/Info                      : Advanced Audio Codec
Format profile                   : LC
Codec ID                         : 40
Duration                         : 5h 15mn
Bit rate mode                    : Constant
Bit rate                         : 128 Kbps
Channel(s)                       : 2 channels
Channel positions                : Front: L R
Sampling rate                    : 44.1 KHz
Compression mode                 : Lossy
Stream size                      : 289 MiB (10%)
Language                         : English
Encoded date                     : UTC 2019-09-26 20:46:25
Tagged date                      : UTC 2019-09-26 20:46:25
DOWNLOAD

https://userscloud.com/380eeh3j2o2n
https://fileup.cc/ydyxq6yjoxd5
https://upload.ac/1ylsr0nj0ymz
http://nitroflare.com/view/B362E55E3096102
https://uptobox.com/e39suxfptdwg
https://multiup.org/download/977e007ee480238de30795572cebab08
https://1fichier.com/?7zf2eb88ow2ggjh7mm2w
https://rapidgator.net/file/ebcbef3cb3674147262ef170cc0b1015
http://dl.free.fr/bS5114nji
https://earn4files.com/jf481x5p20z9
https://uploadgig.com/file/download/82b12695665D70Bf

6 Comments on “PFL 18 Las Vegas PFL 7 2019 Playoffs 540p”

  1. Not a diehard fan, but I just enjoy the combat sport genre, there’s so many of them that I couldn’t keep track, the fight dates would generally tell me where I am with the respective fights posted.
    Thank you for allowing free downloads, because of bandwidth constrains I normally opt for the 480/540 resolution. Please maintain the good work.

Leave a Reply

Your email address will not be published. Required fields are marked *