PBC On Fox Wilder Vs Ortiz 2 PPV 2019 11 23 1080i HDTV-WH [41 GB]

PBC On Fox Wilder Vs Ortiz 2 PPV 2019 11 23 1080i HDTV-WH [41 GB]

General
ID : 1 (0x1)
Complete name : PBC.On.Fox.Wilder.Vs.Ortiz.2.PPV.2019.11.23.1080i.HDTV-WH.ts
Format : MPEG-TS
Format/Info : Advanced Video Codec
File size : 41.4 GiB
Duration : 6h 0mn
Overall bit rate : 16.5 Mbps

Video
ID : 101 (0x65)
Menu ID : 1 (0x1)
Format : AVC
Format/Info : Advanced Video Codec
Format profile : [email protected]
Format settings, CABAC : Yes
Format settings, ReFrames : 4 frames
Codec ID : 27
Duration : 6h 0mn
Bit rate : 14.1 Mbps
Width : 1 920 pixels
Height : 1 080 pixels
Display aspect ratio : 16:9
Frame rate : 25.000 fps
Color space : YUV
Chroma subsampling : 4:2:0
Bit depth : 8 bits
Scan type : Interlaced
Scan order : Top Field First
Bits/(Pixel*Frame) : 0.272
Stream size : 35.5 GiB (86%)
Transfer characteristics : BT.709-5, BT.1361

Audio #1
ID : 102 (0x66)
Menu ID : 1 (0x1)
Format : MPEG Audio
Format version : Version 1
Format profile : Layer 2
Codec ID : 3
Duration : 6h 0mn
Bit rate mode : Constant
Bit rate : 384 Kbps
Channel(s) : 2 channels
Sampling rate : 48.0 KHz
Compression mode : Lossy
Delay relative to video : -82ms
Stream size : 989 MiB (2%)
Language : English

Audio #2
ID : 103 (0x67)
Menu ID : 1 (0x1)
Format : MPEG Audio
Format version : Version 1
Format profile : Layer 2
Codec ID : 3
Duration : 6h 0mn
Bit rate mode : Constant
Bit rate : 384 Kbps
Channel(s) : 2 channels
Sampling rate : 48.0 KHz
Compression mode : Lossy
Delay relative to video : -82ms
Stream size : 989 MiB (2%)
Language : English

Audio #3
ID : 104 (0x68)
Menu ID : 1 (0x1)
Format : MPEG Audio
Format version : Version 1
Format profile : Layer 2
Codec ID : 3
Duration : 6h 0mn
Bit rate mode : Constant
Bit rate : 384 Kbps
Channel(s) : 2 channels
Sampling rate : 48.0 KHz
Compression mode : Lossy
Delay relative to video : -82ms
Stream size : 989 MiB (2%)
Language : Spanish

Audio #4
ID : 105 (0x69)
Menu ID : 1 (0x1)
Format : MPEG Audio
Format version : Version 1
Format profile : Layer 2
Codec ID : 3
Duration : 6h 0mn
Bit rate mode : Constant
Bit rate : 384 Kbps
Channel(s) : 2 channels
Sampling rate : 48.0 KHz
Compression mode : Lossy
Delay relative to video : -90ms
Stream size : 989 MiB (2%)
Language : English

Menu
ID : 100 (0x64)
Menu ID : 1 (0x1)
Duration : 6h 0mn
Language : / English / English / Spanish / English
Maximum bit rate : 200000000

nitroflare
https://nitroflare.com/view/BF774A647237E37



dropapk
https://dropapk.to/67bepubtyrik
https://dropapk.to/fg9rnkmwfgvh
https://dropapk.to/wxl06zd2ornp
https://dropapk.to/r5f8j3whh17b
https://dropapk.to/j9u2q1yvykab

fileup
https://fileup.cc/jnaklc1aa6jw
https://fileup.cc/h7hwnnbl5yz6
https://fileup.cc/q1sliefl047q
https://fileup.cc/tvexqqkj1bcn
https://fileup.cc/io234gzkca7d

nitroflare
https://nitroflare.com/view/F032A7388575513
https://nitroflare.com/view/8CAFDB5E91AFF32
https://nitroflare.com/view/8D4F467CE506EA8
https://nitroflare.com/view/84C645EA5BC94E4
https://nitroflare.com/view/2EEAB4B4B8F3E99

uploadgig
https://uploadgig.com/file/download/86a4f84fF85a2697
https://uploadgig.com/file/download/2b7e0d72a4510dB9
https://uploadgig.com/file/download/910a5b4ceeF1F61f
https://uploadgig.com/file/download/7Fb9d0fcAE7b2526
https://uploadgig.com/file/download/feeE47f91b42ef90

Leave a Reply

Your email address will not be published.