Pancrase.303.WEB.540p.H264

Pancrase.303.WEB.540p.H264

From UFC.TV / Fight Pass

Mar 17, 8:00AM
Kota Kawahata vs Masataka Hiraga
Satoshi Miyokawa vs Keisuke Tachibana
Kiyoshiro Akasaki vs Tiger DATE
Yohei Misawa vs Katsuyuki Hironaka
Satoru Enomoto vs Tatsuki Okano
Nobuaki Yamamoto vs Jouou DATE
Yuki Nagai vs Kenzo Hirokawa
Hiroki Otano vs Junpei Ueno
Kohei Maeda vs Junichi Hirata
Ryo Iseki vs Mitsuhiro Taki
Yutaka Kobayashi vs Ukyo Abe
Yoko Higashi vs Jung Seoyun
Yusuke Ogikubo vs Tatsuyuki Nakamura
Ryuichi Miki vs Taiki Akiba
Michinori Tanaka vs Vladimir Leontyev
Shohei Masumizu vs Rilley Dutro
Yoshinori Horievs vs Hiroshige Tanaka
Salimkhan Sadulloev vs Hiroto Uesako
Rafael Silva vs Kenta Takizawa (PANCRASE Bantamweight Title Fight)

General
Complete name                            : Pancrase.303.WEB.540p.H264.mp4
Format                                   : MPEG-4
Format profile                           : Base Media
Codec ID                                 : isom (isom/iso2/avc1/mp41)
File size                                : 5.01 GiB
Duration                                 : 5 h 11 min
Overall bit rate                         : 2 302 kb/s
Writing application                      : Lavf58.20.100

Video
ID                                       : 1
Format                                   : AVC
Format/Info                              : Advanced Video Codec
Format profile                           : [email protected]
Format settings                          : CABAC / 3 Ref Frames
Format settings, CABAC                   : Yes
Format settings, ReFrames                : 3 frames
Codec ID                                 : avc1
Codec ID/Info                            : Advanced Video Coding
Duration                                 : 5 h 11 min
Bit rate                                 : 2 194 kb/s
Width                                    : 960 pixels
Height                                   : 540 pixels
Display aspect ratio                     : 16:9
Frame rate mode                          : Constant
Frame rate                               : 29.970 (30000/1001) FPS
Original frame rate                      : 29.970 (29970/1000) FPS
Color space                              : YUV
Chroma subsampling                       : 4:2:0
Bit depth                                : 8 bits
Scan type                                : Progressive
Bits/(Pixel*Frame)                       : 0.141
Stream size                              : 4.77 GiB (95%)

Audio
ID                                       : 2
Format                                   : AAC
Format/Info                              : Advanced Audio Codec
Format profile                           : LC
Codec ID                                 : mp4a-40-2
Duration                                 : 5 h 11 min
Bit rate mode                            : Constant
Bit rate                                 : 96.0 kb/s
Channel(s)                               : 2 channels
Channel positions                        : Front: L R
Sampling rate                            : 44.1 kHz
Frame rate                               : 43.066 FPS (1024 SPF)
Compression mode                         : Lossy
Stream size                              : 217 MiB (4%)
Default                                  : Yes
Alternate group                          : 1

https://1fichier.com/?6ghg9prq4shikv6nk0fd
https://1fichier.com/?f4h1pyo6yvaiqyv7wgll
https://1fichier.com/?z0konr3uwqlkh5oy78h0
https://1fichier.com/?4pbdlw7qf8dmmsvca85q


https://anonfile.com/fbu6HfSbm7
https://anonfile.com/4dvbH0S9m9
https://anonfile.com/85vaH1Scme
https://anonfile.com/Z0v3H4Sbm4


https://ddl.to/bbw0nigp67vt
https://ddl.to/4lrzv1j5sd03
https://ddl.to/h2wb7ggz0nal
https://ddl.to/38gnozqnmdlk


http://dl.free.fr/otO8H7uR2
http://dl.free.fr/htZnWCHms
http://dl.free.fr/bkznGwjRh
http://dl.free.fr/nRdxJukzO


https://filerio.in/xzarvhfg88rm
https://filerio.in/4q4isdfbjdwz
https://filerio.in/bbxj3kgduktl
https://filerio.in/25ws2w9gdzuu


http://filestore.to/?d=0NO554C2BZ
http://filestore.to/?d=JVJYXROICC
http://filestore.to/?d=D9P3Z33WML
http://filestore.to/?d=MVNQQR6HGV

ONE LINK DOWNLOAD

https://1fichier.com/?1vva2n3npg9qscm97di5
https://anonfile.com/j2u9H4S2md
http://dl.free.fr/iinVGKoRs
https://filerio.in/lom4zztn0yjl

Leave a Reply

Your email address will not be published.