Over The Top Wrestling Belfast Banjaxed 2019 720p

Over The Top Wrestling 2019 05 26 Belfast Banjaxed 720p WEB h264-iNDYHEEL 

Belfast Banjaxed 2019, Over The Top Wrestling Belfast Banjaxed 2019 1080p

Over The Top Wrestling 2019 05 26 Belfast Banjaxed 720p WEB h264-iNDYHEEL 


Over.The.Top.Wrestling.2019.05.26.Belfast.Banjaxed.720p.WEB.h264-iNDYHEEL 

Video bitrate: 2102kbps 

– 

Europa Hotel, Belfast, May 26th 2019: 

Scotty Davis & Calum Black vs Michael May & Liam Royal vs The Mongrels 

Club Tropicana vs Rene Dupree, Justy & Sammy D 

David Starr vs Sean Guinness 

OTT Women’s Championship: Raven Creed vs Valkyrie 

OTT Tag Team Championship: Moustache Mountain vs Besties in the World 

WALTER vs Tucker 

OTT World Championship: Jordan Devlin vs Jake Atlas 

General
Complete name : Over.The.Top.Wrestling.2019.05.26.Belfast.Banjaxed.720p.WEB.h264-iNDYHEEL.mp4
Format : MPEG-4
Format profile : Base Media
Codec ID : isom (isom/iso2/avc1/mp41)
File size : 2.59 GiB
Duration : 2 h 45 min
Overall bit rate mode : Variable
Overall bit rate : 2 236 kb/s
Writing application : Lavf58.26.101

Video
ID : 1
Format : AVC
Format/Info : Advanced Video Codec
Format profile : [email protected]
Format settings : CABAC / 3 Ref Frames
Format settings, CABAC : Yes
Format settings, Reference : 3 frames
Codec ID : avc1
Codec ID/Info : Advanced Video Coding
Duration : 2 h 45 min
Bit rate : 2 102 kb/s
Width : 1 280 pixels
Height : 720 pixels
Display aspect ratio : 16:9
Frame rate mode : Variable
Frame rate : 25.000 FPS
Color space : YUV
Chroma subsampling : 4:2:0
Bit depth : 8 bits
Scan type : Progressive
Bits/(Pixel*Frame) : 0.091
Stream size : 2.44 GiB (94%)
Codec configuration box : avcC

Audio
ID : 2
Format : AAC LC
Format/Info : Advanced Audio Codec Low Complexity
Codec ID : mp4a-40-2
Duration : 2 h 45 min
Bit rate mode : Variable
Bit rate : 129 kb/s
Channel(s) : 2 channels
Channel layout : L R
Sampling rate : 48.0 kHz
Frame rate : 46.875 FPS (1024 SPF)
Compression mode : Lossy
Stream size : 152 MiB (6%)
Default : Yes
Alternate group : 1

filetransfer [Recommended by me]

https://filetransfer.io/data-package/uL55Gl20

https://1fichier.com/?l0jrpng6fbnt60vzru9j
https://anonfile.com/NdTem4t3na
https://bayfiles.com/ZfU4mbtfn4
https://bitster.cz/file/1d02c1
http://dl.free.fr/sIJqfaKd2
https://file.bz/11Vamftbna
http://www.filefactory.com/file/20pc0nr5fb5b
https://filerio.in/npc9g7q2sqbt
https://filescdn.net/2ewl8pngf0kd
https://multiup.org/download/8324bf65aa33953c09edd70976180c3a
https://openload.co/f/Yvy9ME-Ak_I
https://rg.to/file/7f93a77b4b4e5fd014baeb3bd0c2966b
https://turbobit.net/5sg35jmjhmyi.html
https://uploadgig.com/file/download/8e6aa77F32909ae5

Leave a Reply

Your email address will not be published. Required fields are marked *