Over.The.Top.Wrestling.2019.03.16.Scrappermania.5.WEB.HEVC.x265-WH

Over.The.Top.Wrestling.2019.03.16.Scrappermania.5.WEB.HEVC.x265-WH

DescriptionOver.The.Top.Wrestling.2019.03.16.Scrappermania.5.WEB.HEVC.x265-

General
Complete name                    : Over.The.Top.Wrestling.2019.03.16.Scrappermania.5.WEB.HEVC.x265-WH.mp4
Format                          : MPEG-4
Format profile                  : QuickTime
Codec ID                        : qt 
File size                        : 1.68 GiB
Duration                        : 3h 25mn
Overall bit rate                : 1 167 Kbps
Writing application              : Lavf55.33.100

Video
ID                              : 1
Format                          : hev1
Codec ID                        : hev1
Duration                        : 3h 25mn
Bit rate mode                    : Variable
Bit rate                        : 1 034 Kbps
Width                            : 712 pixels
Height                          : 400 pixels
Display aspect ratio            : 16:9
Frame rate mode                  : Constant
Frame rate                      : 25.000 fps
Bits/(Pixel*Frame)              : 0.145
Stream size                      : 1.48 GiB (89%)
Language                        : English

Audio
ID                              : 2
Format                          : AAC
Format/Info                      : Advanced Audio Codec
Format profile                  : LC
Codec ID                        : 40
Duration                        : 3h 25mn
Bit rate mode                    : Constant
Bit rate                        : 128 Kbps
Channel(s)                      : 2 channels
Channel positions                : Front: L R
Sampling rate                    : 44.1 KHz
Compression mode                : Lossy
Stream size                      : 188 MiB (11%)
Language                        : English

https://1fichier.com/?3vfs64v5f32x21bjuk7u
https://anonfile.com/rdg3c8T0m9
https://ddl.to/4ahrhu3sdn8l
http://dl.free.fr/nvHEVNuGg
https://filerio.in/avzvbzfw1rl5
http://filestore.to/?d=OBVRU2SVQC

Leave a Reply

Your email address will not be published.