ONE Hero Series May 720p WEB DL x264-RM

ONE Hero Series May 720p WEB DL x264-RM

ONE Hero Series May 720p WEB DL x264-RM

Name: ONE.Hero.Series.May.720p.WEB.DL.x264-RM
Description:

ONE Championship is coming to you from Beijing!

Watch the best and brightest prospects in China battle it out for a chance to join the illustrious ONE Championship roster. With their martial arts dreams on the line, these young hopefuls will be sure to deliver a spectacular show for fans watching around the world.

General
Complete name : ONE.Hero.Series.May.720p.WEB.DL.x264-RM.mp4
Format : MPEG-4
Format profile : Base Media / Version 2
Codec ID : mp42 (isom/mp42)
File size : 2.21 GiB
Duration : 2 h 32 min
Overall bit rate mode : Variable
Overall bit rate : 2 079 kb/s
Encoded date : UTC 2019-05-27 11:12:54
Tagged date : UTC 2019-05-27 11:12:54
gsst : 0
gstd : 9125604

Video
ID : 1
Format : AVC
Format/Info : Advanced Video Codec
Format profile : [email protected]
Format settings : CABAC / 3 Ref Frames
Format settings, CABAC : Yes
Format settings, Reference : 3 frames
Codec ID : avc1
Codec ID/Info : Advanced Video Coding
Duration : 2 h 32 min
Bit rate : 1 948 kb/s
Width : 1 280 pixels
Height : 720 pixels
Display aspect ratio : 16:9
Frame rate mode : Constant
Frame rate : 25.000 FPS
Color space : YUV
Chroma subsampling : 4:2:0
Bit depth : 8 bits
Scan type : Progressive
Bits/(Pixel*Frame) : 0.085
Stream size : 2.07 GiB (94%)
Title : ISO Media file produced by Google Inc. Created on: 05/27/2019.
Encoded date : UTC 2019-05-27 11:12:54
Tagged date : UTC 2019-05-27 11:12:54
Color range : Limited
Color primaries : BT.709
Transfer characteristics : BT.709
Matrix coefficients : BT.709
Codec configuration box : avcC

Audio
ID : 2
Format : AAC LC
Format/Info : Advanced Audio Codec Low Complexity
Codec ID : mp4a-40-2
Duration : 2 h 32 min
Bit rate mode : Variable
Bit rate : 128 kb/s
Channel(s) : 2 channels
Channel layout : L R
Sampling rate : 44.1 kHz
Frame rate : 43.066 FPS (1024 SPF)
Compression mode : Lossy
Stream size : 139 MiB (6%)
Title : ISO Media file produced by Google Inc. Created on: 05/27/2019.
Encoded date : UTC 2019-05-27 11:12:54
Tagged date : UTC 2019-05-27 11:12:54

https://1fichier.com/?e93lu9l8s11ka5pqyfg0
https://anonfile.com/CfE2e4t9ne
https://bayfiles.com/06G9ect9ne
https://bitster.cz/file/98eab0
http://dl.free.fr/vX6ybR05t
https://file.bz/b7G4e8t9nf
https://filerio.in/hq31gvl1dgjk
https://filescdn.net/zg3z92ds85ua
https://multiup.org/download/d600a875878181619afbdc75a1a4b1f2
http://nitroflare.com/view/6D79C93E8F5AD83
https://openload.co/f/J9KDH3BlVcI
https://rg.to/file/f0cbe23769491bfcff3a6d0b8d3809c6
https://turbobit.net/3jusjll7wa7c.html
https://uploadgig.com/file/download/98706Eff00625f58

Leave a Reply

Your email address will not be published.