NWA Powerrr 2019 10 15 Ep02 720p WEBRIP x264-WH

NWA Powerrr 2019 10 15 Ep02 720p WEBRIP x264-WH

dOWNLOAD NWA Powerrr 2019 10 15 Ep02 720p WH

General
Complete name                    : 
NWA.Powerrr.2019.10.15.Ep02.720p.WEBRIP.x264-WH.mp4
Format                           : MPEG-4
Format profile                   : Base Media
Codec ID                         : isom
File size                        : 1.04 GiB
Duration                         : 56mn 48s
Overall bit rate                 : 2 616 Kbps
Encoded date                     : UTC 2019-09-26 20:46:25
Tagged date                      : UTC 2019-09-26 20:46:25
Writing application              : Lavf56.15.102

Video
ID                               : 1
Format                           : AVC
Format/Info                      : Advanced Video Codec
Format profile                   : [email protected]
Format settings, CABAC           : No
Format settings, ReFrames        : 2 frames
Codec ID                         : avc1
Codec ID/Info                    : Advanced Video Coding
Duration                         : 56mn 48s
Bit rate mode                    : Variable
Bit rate                         : 2 500 Kbps
Width                            : 1 280 pixels
Height                           : 720 pixels
Display aspect ratio             : 16:9
Frame rate mode                  : Constant
Frame rate                       : 29.970 fps
Color space                      : YUV
Chroma subsampling               : 4:2:0
Bit depth                        : 8 bits
Scan type                        : Progressive
Bits/(Pixel*Frame)               : 0.091
Stream size                      : 1 010 MiB (95%)
Writing library                  : x264 core 142
Language                         : English
Encoded date                     : UTC 2019-09-26 20:46:25
Tagged date                      : UTC 2019-09-26 20:46:25

Audio
ID                               : 2
Format                           : AAC
Format/Info                      : Advanced Audio Codec
Format profile                   : LC
Codec ID                         : 40
Duration                         : 56mn 48s
Bit rate mode                    : Variable
Bit rate                         : 123 Kbps
Maximum bit rate                 : 128 Kbps
Channel(s)                       : 2 channels
Channel positions                : Front: L R
Sampling rate                    : 44.1 KHz
Compression mode                 : Lossy
Stream size                      : 50.0 MiB (5%)
Language                         : English
Encoded date                     : UTC 2019-09-26 20:46:25
Tagged date                      : UTC 2019-09-26 20:46:25

earn4files

https://earn4files.com/79yy1rys870k

fileup
https://fileup.cc/2h4yb1k9xyj8

rapidgator
https://rapidgator.net/file/ba094dc941dc710e66d7e713f47be877

uploadgig
https://uploadgig.com/file/download/3e5B7d993A5a1480

Leave a Reply

Your email address will not be published. Required fields are marked *