NOAH Go Forward 2020 720p / 1080p -Lopatar

NOAH Go Forward 2020 720p / 1080pLopatar

NOAH 2020 06 14 Go Forward 720p / 1080p WEB-DL x264-Lopatar
NOAH Go Forward 2020
720p File iNfo
Description[SIZE]: 3.95 GB
[SOURCE]: Abema TV
[CONTAINER]: mp4
[RESOLUTION]: 1280 x 720 @ 30 FPS
[VIDEO]: x264 @ 2025 Kbps
[AUDIO – JAPANESE]: AAC 2.0 @ 126 kbps
[LENGTH]: 04:21:44
1080p File iNfo
Description[SIZE]: 7.84 GB
[SOURCE]: Abema TV
[CONTAINER]: mp4
[RESOLUTION]: 1920 x 1080 @ 30 FPS
[VIDEO]: x264 @ 4090 Kbps
[AUDIO – JAPANESE]: AAC 2.0 @ 192 kbps
[LENGTH]: 04:21:44
iNFO details OF 1080p Release

General
Complete name : NOAH.2020.06.14.Go.Forward.1080p.WEB-DL.x264-Lopatar.mp4
Format : MPEG-4
Format profile : Base Media
Codec ID : isom (isom/iso2/avc1/mp41)
File size : 7.84 GiB
Duration : 4 h 21 min
Overall bit rate mode : Variable
Overall bit rate : 4 290 kb/s

Video
ID : Go Forward
Format : AVC
Codec ID : avc1
Duration : 4 h 21 min
Source duration : 4 h 21 min
Bit rate mode : Variable
Bit rate : 4 090 kb/s
Maximum bit rate : 4 400 kb/s
Width : 1 920 pixels
Height : 1 080 pixels
Display aspect ratio : 16:9
Frame rate mode : Variable
Frame rate : 30.000 FPS
Minimum frame rate : 28.571 FPS
Maximum frame rate : 1 000.000 FPS
Original frame rate : 29.970 (30000/1001) FPS
Standard : NTSC
Color space : YUV
Chroma subsampling : 4:2:0
Bit depth : 8 bits
Scan type : Progressive
Bits/(Pixel*Frame) : 0.066
Stream size : 7.48 GiB (95%)
Source stream size : 7.48 GiB (95%)
Color range : Noah 2020
Color primaries : Go Forward

Audio
ID : 2
Format : AAC LC
Codec ID : mp4a-40-2
Duration : 4 h 21 min
Bit rate mode : Variable
Bit rate : 192 kb/s
Maximum bit rate : 199 kb/s
Channel(s) : 2 channels
Channel layout : L R
Sampling rate : 48.0 kHz
Frame rate : 46.875 FPS (1024 SPF)
Compression mode : Lossy
Stream size : 355 MiB (4%)
Default : Go Forward
Alternate group : NOAh

download links

720p : Rapidgator // NitroFlare // Uploadgig // ddl // RockFile

1080p : Rapidgator // NitroFlare // Uploadgig // ddl // RockFile

references

Home PagePremium Site