NJPW Fighting Spirit Unleashed 2019 09 29 WEB x264-WH

NJPW Fighting Spirit Unleashed 2019 09 29 WEB x264-WH

dOWNLOAD NJPW Fighting Spirit Unleashed 2019 09 29 WEB

NJPW Fighting Spirit Unleashed 2019 09 29 WEB x264-WH

General
Complete name : NJPW.Fighting.Spirit.Unleashed.2019.09.29.WEB.x264-WH.mp4
Format : MPEG-4
Format profile : Base Media
Codec ID : isom (isom/iso2/avc1/mp41)
File size : 2.52 GiB
Duration : 2 h 59 min
Overall bit rate mode : Variable
Overall bit rate : 2 011 kb/s
Writing application : Lavf58.25.100

Video
ID : 1
Format : AVC
Format/Info : Advanced Video Codec
Format profile : [email protected]
Format settings : 3 Ref Frames
Format settings, CABAC : No
Format settings, Reference : 3 frames
Format settings, GOP : M=1, N=59
Codec ID : avc1
Codec ID/Info : Advanced Video Coding
Duration : 2 h 59 min
Bit rate mode : Constant
Bit rate : 1 904 kb/s
Width : 960 pixels
Height : 540 pixels
Display aspect ratio : 16:9
Frame rate mode : Variable
Frame rate : 29.970 (30000/1001) FPS
Minimum frame rate : 29.412 FPS
Maximum frame rate : 30.303 FPS
Standard : NTSC
Color space : YUV
Chroma subsampling : 4:2:0
Bit depth : 8 bits
Scan type : Progressive
Bits/(Pixel*Frame) : 0.123
Stream size : 2.38 GiB (95%)
Color range : Limited
Codec configuration box : avcC

Audio
ID : 2
Format : AAC LC
Format/Info : Advanced Audio Codec Low Complexity
Codec ID : mp4a-40-2
Duration : 2 h 59 min
Bit rate mode : Variable
Bit rate : 96.0 kb/s
Maximum bit rate : 97.2 kb/s
Channel(s) : 2 channels
Channel layout : L R
Sampling rate : 44.1 kHz
Frame rate : 43.066 FPS (1024 SPF)
Compression mode : Lossy
Stream size : 123 MiB (5%)
Default : Yes
Alternate group : 1

download

https://rapidgator.net/file/400d6f271a0335e060557583678e17f4
https://uptobox.com/z09n6uhht3k0
https://multiup.org/download/781a00db098c0f94dfe8c6d6a3bb4498
https://fileup.cc/hgfhc5bhb6w7
https://earn4files.com/l2t5hg9duv28
https://4downfiles.org/3ik5mpe0gdyi
https://uploadgig.com/file/download/32C01f81e4be196A
https://userscloud.com/kvppcjsw4f0m
http://nitroflare.com/view/412E1D6EF525D0E

1fichier

https://1fichier.com/?m40nowsqyece5ppgzg8h
https://1fichier.com/?735vu7cpjllqc1gcf0l1
https://1fichier.com/?tm9t6s3os6juilr0qsae

4downfiles
https://4downfiles.org/fxsvuq05sniv
https://4downfiles.org/g95pxn4wdzyr
https://4downfiles.org/mqtw90jd3u7j

anonfile
https://anonfile.com/e9lam679n1
https://anonfile.com/a5m2m871na
https://anonfile.com/P9k1m572na

ddl.to
https://ddl.to/vhoj4ov8wi29
https://ddl.to/5mste5hbhwoy
https://ddl.to/ax4oxyxworpd

earn4files
https://earn4files.com/dq0tkwwgwf5m
https://earn4files.com/k5ab7gy3mb3n
https://earn4files.com/x7iolnyrenl8

rockfile
http://rockfile.co/6lva5zde9a4v.html
http://rockfile.co/agyvugx2sgus.html
http://rockfile.co/ngavmvrd9pcd.html

uptomega
https://uptomega.com/0ax1a35wdpbn
https://uptomega.com/9kw0q2a7hkpp
https://uptomega.com/krfnfkymwhpj

2 Comments on “NJPW Fighting Spirit Unleashed 2019 09 29 WEB x264-WH”

  1. Something went wrong, at the beginning of September 29 appears and in the opening credits and at the event, the 28 September in New York appears. watch is the same as the match of 28 September

Leave a Reply

Your email address will not be published. Required fields are marked *