NJPW 2019 09 29 Fighting Spirit Unleashed Philadelphia 540p / 720p

NJPW 2019 09 29 Fighting Spirit Unleashed Philadelphia 540p / 720p

dOWNLOAD NJPW 2019 09 29 Fighting Spirit Unleashed Philadelphia 540p / 720p

NJPW 2019 09 29 Fighting Spirit Unleashed Philadelphia 540p / 720p
CARD:
Singles Match
Clark Connors vs. Rocky Romero

Singles Match
Karl Fredericks vs. Mikey Nicholls

Singles Match
Alex Coughlin vs. Lance Archer

Singles Match
Amazing Red vs. Ren Narita

Six Man Tag Team Match
Juice Robinson & Roppongi 3K (SHO & YOH) vs.
Los Ingobernables de Japon (SANADA, Shingo Takagi & Tetsuya Naito)

Tag Team Match
Kota Ibushi & TJP vs. Los Ingobernables de Japon (BUSHI & EVIL)

12 Man Tag Team Elimination Match
BULLET CLUB
(Chase Owens, Gedo, Jay White, KENTA, Tama Tonga & Tanga Loa)
vs. The Rock ‘n’ Roll Express (Ricky Morton & Robert Gibson), CHAOS
(Hirooki Goto, Tomohiro Ishii & YOSHI-HASHI) & Hiroshi Tanahashi
DOWNLOAD

NJPW 2019 09 29 Fighting Spirit Unleashed Philadelphia 720p WEB x264-H33B

DescriptionDATE:  2019.09.29
LOCATION:  Philadelphia, Pennsylvania, USA
ARENA:  2300 Arena
RUNTIME:  2h 27m 31s
VIDEO:  x264 | 1904 kbps | 1280×720 px | 30 fps
AUDIO:  AAC | 96~ kbps
LANGUAGE:  No Commentary
CONTAINER:  MP4

NOTE:  As of now, this show isn’t available as a collected file,
but only as separate matches without commentary.

fileup

https://fileup.cc/pshu9o88flil

nitroflare
http://nitroflare.com/view/558C8CA93E2B931

uploadgig

https://uploadgig.com/file/download/B389aa6067bdfb63

rapidgator
https://rapidgator.net/file/30db1443e6a0a9fcc98c2970e20a354d

NJPW 2019 09 29 Fighting Spirit Unleashed Philadelphia 540p WEBRIP x264-WH

General
Format                      : MPEG-4
Format profile              : Base Media
Codec ID                    : isom (isom/iso2/avc1/mp41)
File size                   : 1.39 GiB
Duration                    : 2 h 28 min
Overall bit rate            : 1 340 kb/s
Encoded date                : UTC 2019-09-26 20:46:25
Tagged date                 : UTC 2019-09-26 20:46:25
Writing application         : Lavf56.15.102

Video
ID                          : 1
Format                      : AVC
Format/Info                 : Advanced Video Codec
Format profile              : [email protected]
Format settings             : 2 Ref Frames
Format settings, CABAC      : No
Format settings, Reference  : 2 frames
Codec ID                    : avc1
Codec ID/Info               : Advanced Video Coding
Duration                    : 2 h 28 min
Bit rate                    : 1 200 kb/s
Width                       : 960 pixels
Height                      : 540 pixels
Display aspect ratio        : 16:9
Frame rate mode             : Constant
Frame rate                  : 30.000 FPS
Color space                 : YUV
Chroma subsampling          : 4:2:0
Bit depth                   : 8 bits
Scan type                   : Progressive
Bits/(Pixel*Frame)          : 0.077
Stream size                 : 1.24 GiB (90%)
Writing library             : x264 core 142
Language                    : English
Encoded date                : UTC 2019-09-26 20:46:25
Tagged date                 : UTC 2019-09-26 20:46:25
Codec configuration box     : avcC

Audio
ID                          : 2
Format                      : AAC LC
Format/Info                 : Advanced Audio Codec Low Complexity
Codec ID                    : mp4a-40-2
Duration                    : 2 h 28 min
Bit rate mode               : Constant
Bit rate                    : 128 kb/s
Channel(s)                  : 2 channels
Channel layout              : L R
Sampling rate               : 44.1 kHz
Frame rate                  : 43.066 FPS (1024 SPF)
Compression mode            : Lossy
Stream size                 : 136 MiB (10%)
Language                    : English
Default                     : Yes
Alternate group             : 1
Encoded date                : UTC 2019-09-26 20:46:25
Tagged date                 : UTC 2019-09-26 20:46:25

fileup

https://fileup.cc/p0487vvnnxk0

nitroflare
http://nitroflare.com/view/99FF4AEACA608FA

uploadgig

https://uploadgig.com/file/download/Ed60dbdfac20daC4

rapidgator
https://rapidgator.net/file/dff45ba92be0a9e0d6d1db77cbf3e3ba

Leave a Reply

Your email address will not be published. Required fields are marked *