MMA Pancrase 305 WEB x264-WH

MMA Pancrase 305 WEB x264-WH

MMA Pancrase 305 WEB x264-WH

Name – MMA.Pancrase.305.WEB.x264-WH
Released – 06.01.2019
SOURCE – 720.ADMIT
Size – 3.85 GB
Container – MP4
Resolution – 712 x 400 (16:9) @ 25 FPS
Video – x264 @ 1500 KBPS
Audio – AAC 128 KBPS
Length – 05:39:11
Encoder – WH Crew

General
Complete name : MMA.Pancrase.305.WEB.x264-WH.mp4
Format : MPEG-4
Format profile : Base Media
Codec ID : isom (isom/iso2/avc1/mp41)
File size : 3.86 GiB
Duration : 5 h 39 min
Overall bit rate : 1 628 kb/s
Encoded date : UTC 2019-05-29 13:50:10
Tagged date : UTC 2019-05-29 13:50:10
Writing application : Lavf56.15.102

Video
ID : 1
Format : AVC

Format/Info : Advanced Video Codec
Format profile : [email protected]
Format settings : 2 Ref Frames
Format settings, CABAC : No
Format settings, Reference : 2 frames
Codec ID : avc1
Codec ID/Info : Advanced Video Coding
Duration : 5 h 39 min
Bit rate : 1 500 kb/s
Width : 712 pixels
Height : 400 pixels
Display aspect ratio : 16:9
Frame rate mode : Constant
Frame rate : 25.000 FPS
Color space : YUV
Chroma subsampling : 4:2:0
Bit depth : 8 bits
Scan type : Progressive
Bits/(Pixel*Frame) : 0.211
Stream size : 3.54 GiB (92%)
Writing library : x264 core 142
Language : English
Encoded date : UTC 2019-05-29 13:50:10
Tagged date : UTC 2019-05-29 13:50:10
Codec configuration box : avcC

Audio
ID : 2
Format : AAC LC
Format/Info : Advanced Audio Codec Low Complexity
Codec ID : mp4a-40-2
Duration : 5 h 39 min
Bit rate mode : Constant
Bit rate : 128 kb/s
Channel(s) : 2 channels
Channel layout : L R
Sampling rate : 44.1 kHz
Frame rate : 43.066 FPS (1024 SPF)
Compression mode : Lossy
Stream size : 310 MiB (8%)
Language : English
Default : Yes
Alternate group : 1
Encoded date : UTC 2019-05-29 13:50:10
Tagged date : UTC 2019-05-29 13:50:10

https://1fichier.com/?z1hzsvmfkgu7klxfhuoe
https://anonfile.com/Z0Hc95tanb
https://bayfiles.com/x6I498t6n8
https://bitster.cz/file/40dfae
http://dl.free.fr/ii1jBs2xk
https://file.bz/t4I598tan5
https://filerio.in/t9e9cp5dv43x
https://filescdn.net/y809peeowybf
https://multiup.org/download/c29552e78066b770a7e4439e3a79c46e
http://nitroflare.com/view/098ED15D5622DE7
https://openload.co/f/KaYUeAAciFk
https://rg.to/file/30894124e8f32bcbfd0bde1e675af9ec
https://turbobit.net/cqett0t43wdd.html

Leave a Reply

Your email address will not be published.