MLW 2019 11 02 Saturday Night SuperFight 540p / 720p -WH

MLW 2019 11 02 Saturday Night SuperFight 540p / 720p -WH

dOWNLOAD MLW 2019 11 02 Saturday Night SuperFight 540p / 720p -WH

MLW 2019 11 02 Saturday Night SuperFight 540p / 720p -WH

MLW 2019 11 02 Saturday Night SuperFight 540p WEBRIP x264-WH

General
Complete name                    : 
MLW.2019.11.02.Saturday.Night.SuperFight.540p.WEBRIP.x264-WH.mp4
Format                           : MPEG-4
Format profile                   : Base Media
Codec ID                         : isom
File size                        : 1.68 GiB
Duration                         : 3h 0mn
Overall bit rate                 : 1 334 Kbps
Encoded date                     : UTC 2019-09-26 20:46:25
Tagged date                      : UTC 2019-09-26 20:46:25
Writing application              : Lavf56.15.102

Video
ID                               : 1
Format                           : AVC
Format/Info                      : Advanced Video Codec
Format profile                   : [email protected]
Format settings, CABAC           : No
Format settings, ReFrames        : 2 frames
Codec ID                         : avc1
Codec ID/Info                    : Advanced Video Coding
Duration                         : 3h 0mn
Bit rate mode                    : Variable
Bit rate                         : 1 200 Kbps
Width                            : 960 pixels
Height                           : 540 pixels
Display aspect ratio             : 16:9
Frame rate mode                  : Constant
Frame rate                       : 30.000 fps
Color space                      : YUV
Chroma subsampling               : 4:2:0
Bit depth                        : 8 bits
Scan type                        : Progressive
Bits/(Pixel*Frame)               : 0.077
Stream size                      : 1.51 GiB (90%)
Writing library                  : x264 core 142
Language                         : English
Encoded date                     : UTC 2019-09-26 20:46:25
Tagged date                      : UTC 2019-09-26 20:46:25

Audio
ID                               : 2
Format                           : AAC
Format/Info                      : Advanced Audio Codec
Format profile                   : LC
Codec ID                         : 40
Duration                         : 3h 0mn
Bit rate mode                    : Constant
Bit rate                         : 128 Kbps
Channel(s)                       : 2 channels
Channel positions                : Front: L R
Sampling rate                    : 44.1 KHz
Compression mode                 : Lossy
Stream size                      : 165 MiB (10%)
Language                         : English
Encoded date                     : UTC 2019-09-26 20:46:25
Tagged date                      : UTC 2019-09-26 20:46:25

https://4downfiles.co/uotev31dp50q
https://dropapk.to/n1st21ez6e2h
https://earn4files.com/w43s4xw5e6gp
https://fileup.cc/utzjsvtcb8id
http://nitroflare.com/view/63543BAA022A12F
https://rapidgator.net/file/19ba38ce18dd9f2f063916e189908ad0

MLW 2019 11 02 Saturday Night SuperFight 720p WEBRIP x264-WH

General
Complete name                    : 
MLW.2019.11.02.Saturday.Night.SuperFight.720p.WEBRIP.x264-WH.mp4
Format                           : MPEG-4
Format profile                   : Base Media
Codec ID                         : isom
File size                        : 3.32 GiB
Duration                         : 3h 0mn
Overall bit rate                 : 2 633 Kbps
Encoded date                     : UTC 2019-09-26 20:46:25
Tagged date                      : UTC 2019-09-26 20:46:25
Writing application              : Lavf56.15.102

Video
ID                               : 1
Format                           : AVC
Format/Info                      : Advanced Video Codec
Format profile                   : [email protected]
Format settings, CABAC           : No
Format settings, ReFrames        : 2 frames
Codec ID                         : avc1
Codec ID/Info                    : Advanced Video Coding
Duration                         : 3h 0mn
Bit rate mode                    : Variable
Bit rate                         : 2 500 Kbps
Width                            : 1 280 pixels
Height                           : 720 pixels
Display aspect ratio             : 16:9
Frame rate mode                  : Constant
Frame rate                       : 30.000 fps
Color space                      : YUV
Chroma subsampling               : 4:2:0
Bit depth                        : 8 bits
Scan type                        : Progressive
Bits/(Pixel*Frame)               : 0.090
Stream size                      : 3.15 GiB (95%)
Writing library                  : x264 core 142
Language                         : English
Encoded date                     : UTC 2019-09-26 20:46:25
Tagged date                      : UTC 2019-09-26 20:46:25

Audio
ID                               : 2
Format                           : AAC
Format/Info                      : Advanced Audio Codec
Format profile                   : LC
Codec ID                         : 40
Duration                         : 3h 0mn
Bit rate mode                    : Constant
Bit rate                         : 128 Kbps
Channel(s)                       : 2 channels
Channel positions                : Front: L R
Sampling rate                    : 44.1 KHz
Compression mode                 : Lossy
Stream size                      : 165 MiB (5%)
Language                         : English
Encoded date                     : UTC 2019-09-26 20:46:25
Tagged date                      : UTC 2019-09-26 20:46:25

https://dropapk.to/2hr61u7zrzbq
https://fileup.cc/5dah1ko5pgd5
http://nitroflare.com/view/B364DD9BAB98E7F
https://rapidgator.net/file/2a45a8fbd58c2c8cd55215b456ffcb88

4downfiles

https://4downfiles.co/c81kiomx6a2t
https://4downfiles.co/zk0idibq2snl
https://4downfiles.co/te38m8s0kbni
https://4downfiles.co/jsmx8zvkjosg

dropapk
https://dropapk.to/faw45pq49ha5
https://dropapk.to/vxfv07sqqyg0
https://dropapk.to/5kkvko802i7u
https://dropapk.to/z033oiybw03z

earn4files
https://earn4files.com/gnanvgh2bv7r
https://earn4files.com/bflx6lzkjj7k
https://earn4files.com/s6ulm652898t
https://earn4files.com/ankxv6dnadvb

Leave a Reply

Your email address will not be published. Required fields are marked *