MLW 2019 11 02 Saturday Night SuperFight 1080p

MLW 2019 11 02 Saturday Night SuperFight 1080p WEB h264-iNDYHEEL

dOWNLOAD MLW 2019 11 02 Saturday Night SuperFight 1080p

MLW 2019 11 02 Saturday Night SuperFight 1080p
DescriptionMLW.2019.11.02.Saturday.Night.SuperFight.1080p.WEB.h264-iNDYHEEL



MLW World Tag Team Title Texas Tornado Match
The Dynasty (MJF & Richard Holliday) (c) vs. The Von Erichs
(Marshall von Erich & Ross von Erich)

Six Man Tag Team Match
Injustice (Jordan Oliver, Kotto Brazil & Myron Reed) vs.
Gringo Loco, Puma King & Septimo Dragon

MLW Middleweight Title Match
Teddy Hart (c) vs. Austin Aries

Singles Match
Brian Pillman Jr. vs. Low Ki

Singles Match
Timothy Thatcher vs. Tom Lawlor

Stairway To Hell Three Way Ladder Match
Bestia 666 vs. Jimmy Havoc vs. Mance Warner

MLW National Openweight Title Match
Alexander Hammerstone (c) vs. Davey Boy Smith Jr.

MLW World Heavyweight Title No Disqualification Match
Jacob Fatu (c) vs. LA Park

MLW.2019.11.02.Saturday.Night.SuperFight.1080p.WEB.h264-iNDYHEEL.mp4
Format : MPEG-4
Format profile : Base Media
Codec ID : isom
File size : 5.47 GiB
Duration : 3h 0mn
Overall bit rate : 4 345 Kbps
Writing application : Lavf58.32.104

Video
ID : 1
Format : AVC
Format/Info : Advanced Video Codec
Format profile : [email protected]
Format settings, CABAC : Yes
Format settings, ReFrames : 4 frames
Format settings, GOP : M=4, N=32
Codec ID : avc1
Codec ID/Info : Advanced Video Coding
Duration : 3h 0mn
Bit rate mode : Variable
Bit rate : 4 205 Kbps
Width : 1 920 pixels
Height : 1 080 pixels
Display aspect ratio : 16:9
Frame rate mode : Variable
Frame rate : 29.970 fps
Minimum frame rate : 1.034 fps
Maximum frame rate : 30.303 fps
Color space : YUV
Chroma subsampling : 4:2:0
Bit depth : 8 bits
Scan type : Progressive
Bits/(Pixel*Frame) : 0.068
Stream size : 5.29 GiB (97%)

Audio
ID : 2
Format : AAC
Format/Info : Advanced Audio Codec
Format profile : LC
Codec ID : 40
Duration : 3h 0mn
Bit rate mode : Constant
Bit rate : 129 Kbps
Channel(s) : 2 channels
Channel positions : Front: L R
Sampling rate : 48.0 KHz
Compression mode : Lossy
Stream size : 166 MiB (3%)

Text
ID : 1-608-1
Format : EIA-608
Muxing mode : AVC / SCTE 128 / DTVCC Transport
Muxing mode, more info : Muxed in Video #1
Duration : 3h 0mn
Stream size : 0.00 Byte (0%)
ContentInfo : No content

dropapk

https://dropapk.to/evl55yjcs3fg

fileup
https://fileup.cc/dw3me8ty2fk0

nitroflare
http://nitroflare.com/view/255AA870E6D118E

rapidgator
https://rapidgator.net/file/de355b8a730ef17923b8dcfbd269adf4

4downfiles

https://4downfiles.co/x9ddlbnk6hyr
https://4downfiles.co/jid96eks5nax
https://4downfiles.co/cv9se4mzmwup
https://4downfiles.co/lkgg4yb2h2ho
https://4downfiles.co/3pf5178p12ll
https://4downfiles.co/vd3sjg0dqwp7

dropapk
https://dropapk.to/nw9scrydlolt
https://dropapk.to/j598l09axjov
https://dropapk.to/ssosdqwnc1ii
https://dropapk.to/2f9y5vhvovr9
https://dropapk.to/pfhi0fyej5fp
https://dropapk.to/z8xs6gkph90n

earn4files
https://earn4files.com/60fgm1fq1jsn
https://earn4files.com/ur8b4beem2zb
https://earn4files.com/ljlugjssj396
https://earn4files.com/tee7hk20hyoe
https://earn4files.com/5tz7hf00clhx
https://earn4files.com/k8vd6w91bew6

2 Comments on “MLW 2019 11 02 Saturday Night SuperFight 1080p”

Leave a Reply

Your email address will not be published. Required fields are marked *