Warrior Wrestling 7 2019 12 13 1080p

Warrior Wrestling 7 2019 12 13 1080p

Warrior Wrestling 7 2019 12 13 1080p

General
Complete name : Warrior.Wrestling.7.2019.12.13.1080p.WEB-DL.x264.mp4
Format : MPEG-4
Format profile : Base Media
Codec ID : isom
File size : 7.25 GiB
Duration : 4h 9mn
Overall bit rate : 4 150 Kbps
Writing application : Lavf58.20.100

Video
ID : 1
Format : AVC
Format/Info : Advanced Video Codec
Format profile : [email protected]
Format settings, CABAC : Yes
Format settings, ReFrames : 4 frames
Format settings, GOP : M=4, N=32
Codec ID : avc1
Codec ID/Info : Advanced Video Coding
Duration : 4h 9mn
Bit rate mode : Variable
Bit rate : 4 026 Kbps
Width : 1 920 pixels
Height : 1 080 pixels
Display aspect ratio : 16:9
Frame rate mode : Variable
Frame rate : 29.970 fps
Minimum frame rate : 14.925 fps
Maximum frame rate : 30.303 fps
Color space : YUV
Chroma subsampling : 4:2:0
Bit depth : 8 bits
Scan type : Progressive
Bits/(Pixel*Frame) : 0.065
Stream size : 7.03 GiB (97%)

Audio
ID : 2
Format : AAC
Format/Info : Advanced Audio Codec
Format profile : LC
Codec ID : 40
Duration : 4h 9mn
Bit rate mode : Variable
Bit rate : 112 Kbps
Maximum bit rate : 128 Kbps
Channel(s) : 2 channels
Channel positions : Front: L R
Sampling rate : 48.0 KHz
Compression mode : Lossy
Stream size : 200 MiB (3%)



fileup
fileup.cc/ectg13pfuhf8

intoupload
intoupload.net/6oqcjx81pwbl

nitroflare
nitroflare.com/view/7839E9E396972A1

rapidgator
rapidgator.net/file/adfebbbf05b5e9f70ff9ebfc11fbdddd



dropapk.to/2qc3tv7ukpyy
dropapk.to/469xciv1kqm6
dropapk.to/dpu2jq17kqei
dropapk.to/4jhkzxkm72gq
dropapk.to/s9l5h1t50z3b
dropapk.to/fip2wiw36xqx
dropapk.to/2i6h0qhe2zb3
dropapk.to/nbsncm691ze7

earn4files.com/6w76zf2qzsp5
earn4files.com/412mrbdh9x4f
earn4files.com/1hehoxjl5yz8
earn4files.com/dl7dz34jfq7q
earn4files.com/g41qmbqhmo7l
earn4files.com/f9ewyo9oihrr
earn4files.com/92bwy6bhp37n
earn4files.com/jn503fghvdj9

nitroflare.com/view/2F7780D39763460
nitroflare.com/view/E4880CC93F92071
nitroflare.com/view/F5E8B1B03006D8D
nitroflare.com/view/8F5886EF599835B
nitroflare.com/view/A9775C8C8C4FDF3
nitroflare.com/view/E7E6B80662E14B0
nitroflare.com/view/F229F1FF2CF854C
nitroflare.com/view/798813E4174D056

rockfile.co/dpt8u00isaf2.html
rockfile.co/pvmqlp354y5o.html
rockfile.co/de1frsxgatkg.html
rockfile.co/r02zfuis9yjp.html
rockfile.co/i48cjrgxcrj6.html
rockfile.co/qm2qhon3fbm2.html
rockfile.co/sfn7uuf1hqzu.html
rockfile.co/9sb7uun938a7.html

 103 total views,  1 views today

Warrior Wrestling 7 2019 12 13 1080p

WH : Source OF Wrestling Releases / Home OF WH Releases

Buy Premium or Renew From WH Links to Keep it Alive

About PH.M.H

[Wrestling Best Uploader]

View all posts by PH.M.H →

Leave a Reply

Your email address will not be published. Required fields are marked *