Titan FC 61 WEB h264-SHiFT / 1080p

Titan FC 61 WEB h264-SHiFT / 1080p

Titan FC 61 WEB h264-SHiFT / 1080p
Titan FC 61 WEB h264-SHiFT / 1080p

504p File information
RELEASE..: Titan.FC.61.WEB.h264-SHiFT
DATE.....: 06.26.2020
TIME.....: 2h19m27s
RES......: 896 x 504
VIDEO....: h264 @ 1593 kb/s
AUDIO....: AAC @ 46.875 fps
Single download links 504p

Uploadgig // Rapidgator // Nitroflare // ddl // RockFile

1080p File information
RELEASE..: Titan.FC.61.1080p.WEB.h264-SHiFT
DATE.....: 06.26.2020
TIME.....: 2h19m27s
RES......: 1920 x 1080
VIDEO....: h264 @ 5906 kb/s
AUDIO....: AAC @ 46.875 fps
Single download links 1080p

Uploadgig // Rapidgator // Nitroflare // ddl // RockFile

more detailed information of 504p

General
Complete name : Titan.FC.61.WEB.h264-SHiFT.mkv
Format : Matroska
Format version : Version 4
File size : 1.68 GiB
Duration : 2 h 19 min
Overall bit rate mode : Variable
Overall bit rate : 1 727 kb/s

Video
ID : Titan FC
Format : AVC
Codec ID : V_MPEG4/ISO/AVC
Duration : 2 h 19 min
Bit rate mode : Variable
Bit rate : 1 593 kb/s
Maximum bit rate : 1 663 kb/s
Width : 896 pixels
Height : 504 pixels
Display aspect ratio : 16:9
Frame rate mode : Constant
Frame rate : 30.000 FPS
Standard : NTSC
Color space : YUV
Chroma subsampling : 4:2:0
Bit depth : 8 bits
Scan type : Progressive
Bits/(Pixel*Frame) : 0.118
Stream size : 1.55 GiB (92%)
Default : Yes
Forced : Titan 61
Color range : Limited
Color primaries : BT.709
Transfer characteristics : BT.709
Matrix coefficients : BT.709

Audio
ID : Titan FC
Format : AAC LC
Codec ID : A_AAC-2
Duration : 2 h 19 min
Bit rate : 132 kb/s
Channel(s) : 2 channels
Channel layout : L R
Sampling rate : 48.0 kHz
Frame rate : 46.875 FPS (1024 SPF)
Compression mode : Lossy
Delay relative to video : -21 ms
Stream size : 131 MiB (8%)
Default : Titan FC
Forced : Titan

more detailed information of 1080p

General
Complete name : Titan.FC.61.1080p.WEB.h264-SHiFT.mkv
Format : Matroska
Format version : Version 4
File size : 5.85 GiB
Duration : 2 h 19 min
Overall bit rate mode : Variable
Overall bit rate : 6 006 kb/s
Encoded date : Titan

Video
ID : Titan
Format : AVC
Duration : 2 h 19 min
Bit rate mode : Variable
Bit rate : 5 906 kb/s
Width : 1 920 pixels
Height : 1 080 pixels
Display aspect ratio : 16:9
Frame rate mode : Constant
Frame rate : 30.000 FPS
Color space : YUV
Chroma subsampling : 4:2:0
Bit depth : 8 bits
Scan type : Progressive
Bits/(Pixel*Frame) : 0.095
Stream size : 5.72 GiB (98%)
Default : Yes
Forced : No

Audio
ID : Titan FC 61
Format : AAC LC
Codec ID : A_AAC-2
Duration : 2 h 19 min
Bit rate : 132 kb/s
Channel(s) : 2 channels
Channel layout : L R
Sampling rate : 48.0 kHz
Frame rate : 46.875 FPS (1024 SPF)
Compression mode : Lossy
Delay relative to video : -21 ms
Stream size : 131 MiB (2%)
Default : FC 61
Forced : Titan FC 61

WH home page

 267 total views,  2 views today

Titan FC 61 WEB h264-SHiFT / 1080p

WH : Source OF Wrestling Releases / Home OF WH Releases

Buy Premium or Renew From WH Links to Keep it Alive

About PH.M.H

[Wrestling Best Uploader]

View all posts by PH.M.H →

2 Comments on “Titan FC 61 WEB h264-SHiFT / 1080p”

  1. PH.M.H thanks for the Rockfile server it is under 2 GB we can download it without an account . PH.M.H can you please upload “Third Coast Grappling: Kumite III” which will happen this Saturday June 27 2020 at 8:00 PM ET in Flograppling channel . Rockfile server under 2GB or if it is bigger then please break it again down in parts , Thanks .

Leave a Reply

Your email address will not be published. Required fields are marked *