Submission Underground 15 2020 WEB -SHiFT / 720p

Submission Underground 15 2020 WEB h264-SHiFT / 720p

Submission Underground 15 2020
Submission Underground 15 2020 WEB -SHiFT / 720p
File inFormation – 504p
RELEASE..: Submission.Underground.15.2020.WEB.h264-SHiFT
DATE.....: 06.21.2020
TIME.....: 1h47m1s
RES......: 896 x 504
VIDEO....: h264 @ 1543 kb/s
AUDIO....: AAC @ 46.875 fps
Single download links – 504p

Rapidgator // Nitroflare // Uploadgig // ddl // RockFile

File inFormation – 720p
RELEASE..: Submission.Underground.15.2020.720p.WEB.h264-SHiFT
DATE.....: 06.21.2020
TIME.....: 1h47m1s
RES......: 1280 x 720
VIDEO....: h264 @ 4381 kb/s
AUDIO....: AAC @ 46.875 fps
Single download links – 720p

Rapidgator // Nitroflare // Uploadgig // ddl // RockFile

More detailed inFo – 504p

General
Complete name : WEB.h264-SHiFT.mkv
Format : Matroska
Format version : Version 4
File size : 1.25 GiB
Duration : 1 h 47 min
Overall bit rate mode : Variable
Overall bit rate : 1 678 kb/s
Encoded date : Submission Underground

Video
ID : Submission Underground
Format : AVC
Duration : 1 h 47 min
Bit rate mode : Variable
Bit rate : 1 544 kb/s
Maximum bit rate : 1 663 kb/s
Width : 896 pixels
Height : 504 pixels
Display aspect ratio : 16:9
Frame rate mode : Constant
Frame rate : 30.000 FPS
Standard : NTSC
Color space : YUV
Chroma subsampling : 4:2:0
Bit depth : 8 bits
Scan type : Progressive
Bits/(Pixel*Frame) : 0.114
Stream size : 1.15 GiB (92%)
Default : Submission Underground
Forced : Submission Underground
Color range : Limited
Color primaries : BT.709
Transfer characteristics : BT.709
Matrix coefficients : Submission Underground

Audio
ID : Submission Underground
Format : AAC LC
Codec ID : A_AAC-2
Duration : 1 h 47 min
Bit rate : 132 kb/s
Channel(s) : 2 channels
Channel layout : L R
Sampling rate : 48.0 kHz
Frame rate : 46.875 FPS (1024 SPF)
Compression mode : Lossy
Delay relative to video : -21 ms
Stream size : 101 MiB (8%)
Default : Submission Underground
Forced : Submission Underground

More detailed inFo – 720p

General
Complete name : 720p.WEB.h264-SHiFT.mkv
Format : Matroska
Format version : Version 4
File size : 3.38 GiB
Duration : 1 h 47 min
Overall bit rate mode : Variable
Overall bit rate : 4 516 kb/s
Encoded date : UTC 2020-06-22 01:02:48

Video
ID : Submission Underground
Format : AVC
Codec ID : V_MPEG4/ISO/AVC
Duration : 1 h 47 min
Bit rate mode : Variable
Bit rate : 4 382 kb/s
Maximum bit rate : 4 809 kb/s
Width : 1 280 pixels
Height : 720 pixels
Display aspect ratio : 16:9
Frame rate mode : Constant
Frame rate : 30.000 FPS
Standard : NTSC
Color space : YUV
Chroma subsampling : 4:2:0
Bit depth : 8 bits
Scan type : Progressive
Bits/(Pixel*Frame) : 0.158
Stream size : 3.28 GiB (97%)
Default : Submission Underground
Forced : Submission Underground
Color range : Limited
Color primaries : BT.709
Transfer characteristics : BT.709
Matrix coefficients : Submission Underground

Audio
ID : Submission Underground
Format : AAC LC
Codec ID : A_AAC-2
Duration : 1 h 47 min
Bit rate : 132 kb/s
Channel(s) : 2 channels
Channel layout : L R
Sampling rate : 48.0 kHz
Frame rate : 46.875 FPS (1024 SPF)
Compression mode : Lossy
Delay relative to video : -21 ms
Stream size : 101 MiB (3%)
Default : Submission Underground
Forced : Submission Underground

References

WH Main Home Page

 260 total views,  2 views today

Submission Underground 15 2020 WEB -SHiFT / 720p

WH : Source OF Wrestling Releases / Home OF WH Releases

Buy Premium or Renew From WH Links to Keep it Alive

About PH.M.H

[Wrestling Best Uploader]

View all posts by PH.M.H →

4 Comments on “Submission Underground 15 2020 WEB -SHiFT / 720p”

  1. Thanks for this especially the ones that is under 2 GB in rockfile server , do you already have the Third Coast Grappling 4 ? thanks

Leave a Reply

Your email address will not be published. Required fields are marked *