RIZIN 16 WEBDL 720p Totanon

RIZIN 16 WEBDL 720p Totanon

RIZIN 16 WEBDL 720p Totanon

RIZIN 16 WEBDL 720p Totanon

Hey yo, it’s Totallyanon, cut mah music!

General
Complete name : RIZIN.16.WEBDL.720p.Totanon.mp4
Format : MPEG-4
Format profile : Base Media / Version 2
Codec ID : mp42 (isom/iso2/avc1/mp41/mp42)
File size : 6.26 GiB
Duration : 7 h 25 min
Overall bit rate mode : Variable
Overall bit rate : 2 013 kb/s

Video
ID : 1
Format : AVC
Format/Info : Advanced Video Codec
Format profile : [email protected]
Format settings : CABAC / 4 Ref Frames
Format settings, CABAC : Yes
Format settings, Reference : 4 frames
Format settings, GOP : M=4, N=60
Codec ID : avc1
Codec ID/Info : Advanced Video Coding
Duration : 7 h 25 min
Bit rate : 1 878 kb/s
Width : 1 280 pixels
Height : 720 pixels
Display aspect ratio : 16:9
Frame rate mode : Variable
Frame rate : 29.970 FPS
Minimum frame rate : 10.000 FPS
Maximum frame rate : 90 000.000 FPS
Color space : YUV
Chroma subsampling : 4:2:0
Bit depth : 8 bits
Scan type : Progressive
Bits/(Pixel*Frame) : 0.068
Stream size : 5.84 GiB (93%)
Codec configuration box : avcC

Audio
ID : 2
Format : AAC LC
Format/Info : Advanced Audio Codec Low Complexity
Codec ID : mp4a-40-2
Duration : 7 h 25 min
Bit rate mode : Variable
Bit rate : 128 kb/s
Channel(s) : 2 channels
Channel layout : L R
Sampling rate : 48.0 kHz
Frame rate : 46.875 FPS (1024 SPF)
Compression mode : Lossy
Stream size : 408 MiB (6%)
Default : Yes
Alternate group : 1

RIZIN 16 WEBDL 720p Totanon

1fichier.com/?qoz9b4qkcezgdk42b2m7
anonfile.com/g3c5Mbtfn4
bayfiles.com/Rdc2Mat6n0
bitster.cz/file/1ec17d
dl.free.fr/iZdS4fnyK
file.bz/D0b4M5t8n9
filescdn.net/dwyw9qd2ngju
multiup.org/download/6632cde3f74c0f1e027ad9db3b4b9106
nitroflare.com/view/4ADE8795AF94232
openload.co/f/Am2l6s22Q_k
rg.to/file/f104bbd6bcf2b294d7ffbe0c1cefe155
turbobit.net/6cncknazk03w.html

 107 total views,  1 views today

RIZIN 16 WEBDL 720p Totanon

WH : Source OF Wrestling Releases / Home OF WH Releases

Buy Premium or Renew From WH Links to Keep it Alive

About PH.M.H

[Wrestling Best Uploader]

View all posts by PH.M.H →

Leave a Reply

Your email address will not be published. Required fields are marked *