PFL 2019 3 720p WEB-DL x264

PFL 2019 3 720p WEB-DL x264

PFL 2019 3 720p WEB-DL x264

PFL 2019 3 720p WEB-DL x264

Complete name               : PFL 2019 #3 720p WEB-DL x264.mp4
Format                      : MPEG-4
Codec ID                    : isom (isom/iso2/avc1/mp41)
File size                   : 6.14 GiB
Duration                    : 5 h 30 min
Overall bit rate            : 2 662 kb/s
Writing application         : Lavf57.71.100

Video
Format                      : AVC
Format profile              : [email protected]
Duration                    : 5 h 30 min
Bit rate                    : 2 540 kb/s
Width                       : 1 280 pixels
Height                      : 720 pixels
Display aspect ratio        : 16:9
Frame rate                  : 29.970 (30000/1001) FPS
Chroma subsampling          : 4:2:0
Bit depth                   : 8 bits
Stream size                 : 5.86 GiB (95%)

Audio
Format                      : AAC LC
Duration                    : 5 h 30 min
Bit rate                    : 110 kb/s
Channel(s)                  : 2 channels
Sampling rate               : 48.0 kHz
Stream size                 : 261 MiB (4%)

1fichier.com/?yx89erbyx3s7uqv499ln
anonfile.com/edjct2ufnf
bayfiles.com/mcU2s4u3n6
bitster.cz/file/79539e
dl.free.fr/kNdD9duQx
file.bz/u1T0sbubnb
filerio.in/u26jcxij91dh
filescdn.net/ns6v5tp0idrf
multiup.org/download/36726e319c977d612c50cd8b82bb3c2c/PFL_2019__3_720p_WEB-DL_x264.mp4
nitroflare.com/view/D7A2D16116F643D/PFL_2019_%233_720p_WEB-DL_x264.mp4
openload.co/f/Db5NxvMni2I/PFL_2019_%233_720p_WEB-DL_x264.mp4
rg.to/file/8d8d007badad927b39bf8d514f0a75b6
turbobit.net/swt3yc7uaufx.html
uploadgig.com/file/download/6e22a21a80253921

 83 total views,  1 views today

PFL 2019 3 720p WEB-DL x264

WH : Source OF Wrestling Releases / Home OF WH Releases

Buy Premium or Renew From WH Links to Keep it Alive

About PH.M.H

[Wrestling Best Uploader]

View all posts by PH.M.H →

4 Comments on “PFL 2019 3 720p WEB-DL x264”

Leave a Reply

Your email address will not be published. Required fields are marked *