ONE Hero Series June 720p WEB DL x264-RM

ONE Hero Series June 720p WEB DL x264-RM

ONE Hero Series June: Fu vs Wei is a mixed martial arts event scheduled to take place on June 14, 2019 in Shanghai, China.

ONE Hero Series June 720p WEB DL x264-RM

Fight card

Main card

Qingnan Fu vs. Wei Liu 145 lbs Kickboxing Bout
Wei Xie vs. Deligerihu Liu 135 lbs
Jun Lu vs. Xukui Song 145 lbs Kickboxing Bout
Qingya Zhong vs. Ailinuer Ahejiang 145 lbs
Wurigenbayar vs. Kurbanjiang Tuluosibake 185 lbs
Yong Hu vs. Huyixibai Chuhayifu 135 lbs
Jingjia Wang vs. Keremuaili Maimaitituohati 145 lbs
Fuchong Yang vs. Zhiyuan Yan 135 lbs
Hao Jie Li vs. Yan Chuan Huang 135 lbs
Maolun Wang vs. Zhe Li 125 lbs
Xiong Xiong Cai vs. Jumatai Tasiken 135 lbs

Background

The search for Asia’s next martial arts superstar begins! Held across 12 events in 2019, ONE Hero Series will see the very brightest prospects in China battling for a place on the global stage of ONE Championship. With their martial arts dreams on the line, these young hopefuls will give their all to put on a spectacular show. Be sure to catch them in action!

ONE Hero Series June 720p WEB DL x264-RM

General
Complete name : ONE.Hero.Series.June.720p.WEB.DL.x264-RM.mp4
Format : MPEG-4
Format profile : Base Media
Codec ID : isom (isom/iso2/avc1/mp41)
File size : 3.32 GiB
Duration : 2 h 47 min
Overall bit rate : 2 839 kb/s
Writing application : Lavf56.40.101

Video
ID : 1
Format : AVC
Format/Info : Advanced Video Codec
Format profile : [email protected]
Format settings : CABAC / 4 Ref Frames
Format settings, CABAC : Yes
Format settings, Reference : 4 frames
Codec ID : avc1
Codec ID/Info : Advanced Video Coding
Duration : 2 h 47 min
Bit rate : 2 705 kb/s
Width : 1 280 pixels
Height : 720 pixels
Display aspect ratio : 16:9
Frame rate mode : Variable
Frame rate : 25.000 FPS
Minimum frame rate : 25.000 FPS
Maximum frame rate : 16 000.000 FPS
Color space : YUV
Chroma subsampling : 4:2:0
Bit depth : 8 bits
Scan type : Progressive
Bits/(Pixel*Frame) : 0.117
Stream size : 3.16 GiB (95%)
Codec configuration box : avcC

Audio
ID : 2
Format : AAC LC
Format/Info : Advanced Audio Codec Low Complexity
Codec ID : mp4a-40-2
Duration : 2 h 47 min
Bit rate mode : Constant
Bit rate : 128 kb/s
Channel(s) : 2 channels
Channel layout : L R
Sampling rate : 48.0 kHz
Frame rate : 46.875 FPS (1024 SPF)
Compression mode : Lossy
Stream size : 154 MiB (5%)
Default : Yes
Alternate group : 1

ONE Hero Series June 720p WEB DL x264-RM

1fichier.com/?qw3ihj4q4aromnvqlf0e
anonfile.com/p1V8q8v6n6
bitster.cz/file/8cf7b4
dl.free.fr/bJXQhWuyn
file.bz/K7Xbqbvcn9
filerio.in/f7cei3mla2rc

bayfiles.com/j1Y4qdv6ne
multiup.org/download/6dbe248e74675cf13a19fae2a45456a1
nitroflare.com/view/D42FE44394BE0F3
rg.to/file/41ebb7bbe89cf21cf3943ec37e55fcd1
turbobit.net/5rrr7piurzr8.html
uploadgig.com/file/download/C2d7246464040aB4

 45 total views,  1 views today

ONE Hero Series June 720p WEB DL x264-RM

WH : Source OF Wrestling Releases / Home OF WH Releases

Buy Premium or Renew From WH Links to Keep it Alive

About PH.M.H

[Wrestling Best Uploader]

View all posts by PH.M.H →

Leave a Reply

Your email address will not be published. Required fields are marked *