LFA 68 Jennerman vs Barbosa 720p WEB Totanon

LFA 68 Jennerman vs Barbosa 720p WEB Totanon

LFA 68  Jennerman vs Barbosa 720p WEB Totanon

LFA 68 Jennerman vs Barbosa 720p WEB Totanon

General
Complete name : LFA68.720p.Totanon.mp4
Format : MPEG-4
Format profile : Base Media
Codec ID : isom (isom/iso2/avc1/mp41)
File size : 2.65 GiB
Duration : 2 h 35 min
Overall bit rate : 2 440 kb/s
Writing application : eRightSoft(C)

Video
ID : 1
Format : AVC
Format/Info : Advanced Video Codec
Format profile : [email protected]
Format settings : CABAC / 4 Ref Frames
Format settings, CABAC : Yes
Format settings, Reference : 4 frames
Codec ID : avc1
Codec ID/Info : Advanced Video Coding
Duration : 2 h 35 min
Bit rate : 2 268 kb/s
Width : 1 280 pixels
Height : 720 pixels
Display aspect ratio : 16:9
Frame rate mode : Variable
Frame rate : 31.979 FPS
Minimum frame rate : 0.500 FPS
Maximum frame rate : 32.000 FPS
Color space : YUV
Chroma subsampling : 4:2:0
Bit depth : 8 bits
Scan type : Progressive
Bits/(Pixel*Frame) : 0.077
Stream size : 2.47 GiB (93%)
Writing library : x264 core 152 r2854 e9a5903
Codec configuration box : avcC

Audio
ID : 2
Format : AAC LC
Format/Info : Advanced Audio Codec Low Complexity
Codec ID : mp4a-40-2
Duration : 2 h 35 min
Bit rate mode : Constant
Bit rate : 163 kb/s
Channel(s) : 2 channels
Channel layout : L R
Sampling rate : 48.0 kHz
Frame rate : 46.875 FPS (1024 SPF)
Compression mode : Lossy
Stream size : 182 MiB (7%)
Default : Yes
Alternate group : 1

LFA 68  Jennerman vs Barbosa 720p WEB Totanon
LFA 68  Jennerman vs Barbosa 720p WEB Totanon
LFA 68  Jennerman vs Barbosa 720p WEB Totanon

1fichier.com/?tmzo49edzf0u8jz6py64
anonfile.com/H8K5M7ten4
bayfiles.com/ZaK6M0tan8
bitster.cz/file/692ecf
dl.free.fr/vIpV6tctw
file.bz/U8K8M4t3n7
www.filefactory.com/file/4z081w9vfo4n
filerio.in/edqzyh23xk99
filescdn.net/imyeyphkrr9m
multiup.org/download/b5e93ea6401b6393cb2a51e1d2d1aff8
nitroflare.com/view/22681AFED80C899
openload.co/f/muJB4PGHhLg
rg.to/file/2341b960f5cfe9e035680425385093c0
turbobit.net/lplyfiijwdgt.html

 65 total views,  1 views today

LFA 68  Jennerman vs Barbosa 720p WEB Totanon

WH : Source OF Wrestling Releases / Home OF WH Releases

Buy Premium or Renew From WH Links to Keep it Alive

About PH.M.H

[Wrestling Best Uploader]

View all posts by PH.M.H →

Leave a Reply

Your email address will not be published. Required fields are marked *