Invicta FC 35 WEB-DL H264 FB

Invicta FC 35 WEB-DL H264 FB

Invicta FC 35 WEB-DL H264 FB

Invicta FC 35 WEB-DL H264 FB

[EVENT]: Invicta.FC.35.WEB-DL.H264.FB.mp4
[SIZE]: 2.71 GB
[SOURCE]: Fight Pass
[CONTAINER]: mp4
[RESOLUTION]: 960 x 540 @ 29.970 FPS
[VIDEO]: H264 @ 1600 Kbps
[AUDIO]: AAC @ 92 kbps
[Length]: 04:15:07
[Language]: English

General
Complete name : Invicta.FC.35.WEB-DL.H264.FB.mp4
Format : MPEG-4
Format profile : Base Media
Codec ID : isom (isom/iso2/avc1/mp41)
File size : 2.72 GiB
Duration : 4 h 15 min
Overall bit rate : 1 526 kb/s
Writing application : Lavf58.12.100

Video
ID : 1
Format : AVC
Format/Info : Advanced Video Codec
Format profile : [email protected]
Format settings : CABAC / 3 Ref Frames
Format settings, CABAC : Yes
Format settings, Reference : 3 frames
Codec ID : avc1
Codec ID/Info : Advanced Video Coding
Duration : 4 h 15 min
Bit rate : 1 435 kb/s
Width : 960 pixels
Height : 540 pixels
Display aspect ratio : 16:9
Frame rate mode : Constant
Frame rate : 29.970 (30000/1001) FPS
Original frame rate : 29.970 (29970/1000) FPS
Color space : YUV
Chroma subsampling : 4:2:0
Bit depth : 8 bits
Scan type : Progressive
Bits/(Pixel*Frame) : 0.092
Stream size : 2.56 GiB (94%)
Codec configuration box : avcC

Audio
ID : 2
Format : AAC LC
Format/Info : Advanced Audio Codec Low Complexity
Codec ID : mp4a-40-2
Duration : 4 h 15 min
Bit rate mode : Constant
Bit rate : 81.2 kb/s
Channel(s) : 2 channels
Channel layout : L R
Sampling rate : 44.1 kHz
Frame rate : 43.066 FPS (1024 SPF)
Compression mode : Lossy
Stream size : 148 MiB (5%)
Default : Yes
Alternate group : 1

Invicta FC 35 WEB-DL H264 FB

Google.drive

drive.google.com/file/d/1_Azarq_tIyu4i5QebZm3SzNo023SXTrd

filetransfer

filetransfer.io/data-package/r6oOb6qz

bayfiles.com/181318u4nf
bitster.cz/file/c59e0c
dl.free.fr/mHYzJ2EIx
file.bz/gd0917u6na
openload.co/f/T0TCMrugpVU
rg.to/file/49811550c80c5f3399700ebc2e76b6a4

filescdn.net/xeqxcprur212
nitroflare.com/view/0E5D9D67BCB1409

1fichier.com/?18bqsngsfpsystewq0km
anonfile.com/M8tc17u6n7

filerio.in/ymg96i7lwohx
turbobit.net/qvsbp9kkvwgx.html

multiup.org/download/effaf2b8cbdb138ea105fe3e2f7d9757

 64 total views,  1 views today

Invicta FC 35 WEB-DL H264 FB

WH : Source OF Wrestling Releases / Home OF WH Releases

Buy Premium or Renew From WH Links to Keep it Alive

About PH.M.H

[Wrestling Best Uploader]

View all posts by PH.M.H →

Leave a Reply

Your email address will not be published. Required fields are marked *