GLORY 72 Chicago Super Fight Series 720p -WH [FIXED / RE UPLOADED]

GLORY 72 Chicago Super Fight Series 720p WEB x264-WH

GLORY 72 Chicago Super Fight Series 720p -WH [FIXED / RE UPLOADED]

General
Complete name :GLORY.72.Chicago.Super.Fight.Series.720p.WEB.x264-WH.mp4
Format : MPEG-4
Format profile : Base Media
Codec ID : isom
File size : 3.33 GiB
Duration : 1h 48mn
Overall bit rate : 4 384 Kbps
Writing application : Lavf56.40.101

Video
ID : 1
Format : AVC
Format/Info : Advanced Video Codec
Format profile : [email protected]
Format settings, CABAC : Yes
Format settings, ReFrames : 3 frames
Codec ID : avc1
Codec ID/Info : Advanced Video Coding
Duration : 1h 48mn
Bit rate mode : Variable
Bit rate : 4 246 Kbps
Width : 1 280 pixels
Height : 720 pixels
Display aspect ratio : 16:9
Frame rate mode : Constant
Frame rate : 29.970 fps
Color space : YUV
Chroma subsampling : 4:2:0
Bit depth : 8 bits
Scan type : Progressive
Bits/(Pixel*Frame) : 0.154
Stream size : 3.23 GiB (97%)

Audio
ID : 2
Format : AAC
Format/Info : Advanced Audio Codec
Format profile : LC
Codec ID : 40
Duration : 1h 48mn
Bit rate mode : Constant
Bit rate : 129 Kbps
Channel(s) : 2 channels
Channel positions : Front: L R
Sampling rate : 44.1 KHz
Compression mode : Lossy
Stream size : 101 MiB (3%)


dropapk.to/5jsezi4n1gf3
fileup.cc/7bfw1ndrmu88
nitroflare.com/view/95B8EC291F1207D



dropapk.to/aunbk1rnpsf0
dropapk.to/quf99r75p4wi
dropapk.to/tu4jw4qmrsv2
dropapk.to/kl1b15rsddhd

katfile.com/w14i5xt576fg
katfile.com/igsah2udcfh4
katfile.com/44vb7b7sn6kn
katfile.com/taf5ofqfblmp

nitroflare.com/view/AD866BB5F055FD2
nitroflare.com/view/E682C57BB0DD1AC
nitroflare.com/view/FE57FF33CC4897B
nitroflare.com/view/24375ACF2A6989D

rockfile.co/0dt8qa99emdr.html
rockfile.co/7d5rgdhwcw5g.html
rockfile.co/foe0ftbpv9cw.html
rockfile.co/u34pr6chio7k.html



 96 total views,  1 views today

GLORY 72 Chicago Super Fight Series 720p -WH [FIXED / RE UPLOADED]

WH : Source OF Wrestling Releases / Home OF WH Releases

Buy Premium or Renew From WH Links to Keep it Alive

About PH.M.H

[Wrestling Best Uploader]

View all posts by PH.M.H →

Leave a Reply

Your email address will not be published. Required fields are marked *