Future FC 6 720p WEB DL x264-RM

Future FC 6 720p WEB DL x264-RM

Download Future FC 6 720p Full event free links

Future FC 6 720p WEB DL x264-RM

Future FC 6 720p WEB DL x264-RM

Name:Future.FC.6.720p.WEB.DL.x264-RM
Description:

General
Complete name : Future.FC.6.720p.WEB.DL.x264-RM.mp4
Format : MPEG-4
Format profile : Base Media / Version 2
Codec ID : mp42 (isom/mp42)
File size : 4.10 GiB
Duration : 4 h 51 min
Overall bit rate mode : Variable
Overall bit rate : 2 018 kb/s
Encoded date : UTC 2019-06-29 05:24:05
Tagged date : UTC 2019-06-29 05:24:05
gsst : 0
gstd : 17461800

Video
ID : 1
Format : AVC
Format/Info : Advanced Video Codec
Format profile : [email protected]
Format settings : CABAC / 3 Ref Frames
Format settings, CABAC : Yes
Format settings, Reference : 3 frames
Codec ID : avc1
Codec ID/Info : Advanced Video Coding
Duration : 4 h 51 min
Bit rate : 1 886 kb/s
Width : 1 280 pixels
Height : 720 pixels
Display aspect ratio : 16:9
Frame rate mode : Variable
Frame rate : 29.970 (29970/1000) FPS
Minimum frame rate : 19.987 FPS
Maximum frame rate : 29.970 FPS
Color space : YUV
Chroma subsampling : 4:2:0
Bit depth : 8 bits
Scan type : Progressive
Bits/(Pixel*Frame) : 0.068
Stream size : 3.83 GiB (93%)
Title : ISO Media file produced by Google Inc. Created on: 06/28/2019.
Encoded date : UTC 2019-06-29 05:24:05
Tagged date : UTC 2019-06-29 05:24:05
Color range : Limited
Color primaries : BT.709
Transfer characteristics : BT.709
Matrix coefficients : BT.709
Codec configuration box : avcC

Audio
ID : 2
Format : AAC LC
Format/Info : Advanced Audio Codec Low Complexity
Codec ID : mp4a-40-2
Duration : 4 h 51 min
Bit rate mode : Variable
Bit rate : 128 kb/s
Channel(s) : 2 channels
Channel layout : L R
Sampling rate : 44.1 kHz
Frame rate : 43.066 FPS (1024 SPF)
Compression mode : Lossy
Stream size : 266 MiB (6%)
Title : ISO Media file produced by Google Inc. Created on: 06/28/2019.
Encoded date : UTC 2019-06-29 05:24:05
Tagged date : UTC 2019-06-29 05:24:05

Future FC 6 720p WEB DL x264-RM
Future FC 6 720p WEB DL x264-RM

1fichier.com/?2lb9xjji0ykw0jcmxval
anonfile.com/tbc2ocx9n5
bayfiles.com/p5c2o3x6na
dl.free.fr/bhga8LQTP
file.bz/Qcg1o3xbn6
megaupload.nz/O9d4o4xenf
multiup.org/download/d9aa7acc7666c7f94778f6a1c6b5d67f
turbobit.net/dzarmqbtq8v0.html
uptobox.com/psa7l82rddos

 60 total views,  1 views today

Future FC 6 720p WEB DL x264-RM

WH : Source OF Wrestling Releases / Home OF WH Releases

Buy Premium or Renew From WH Links to Keep it Alive

About PH.M.H

[Wrestling Best Uploader]

View all posts by PH.M.H →

Leave a Reply

Your email address will not be published. Required fields are marked *