Bellator 242 Bandejas vs Pettis 1080i HDTV -WH

Bellator 242 Bandejas vs Pettis 1080i HDTV -WH [27 GB]

Bellator 242 Bandejas vs Pettis 1080i

Bellator 242 Bandejas vs Pettis 1080i HDTV -WH
  • English / German ~ 2 Audio Track File , Best Release you will never seen such as it

File information

General
Complete name : Bellator 242 1080i HDTV -WH.ts
Format : MPEG-TS
File size : 27.0 GiB
Duration : 3 h 47 min
Overall bit rate mode : Variable
Overall bit rate : 17.0 Mb/s

Video
Format : AVC
Bandejas vs Pettis
Duration : 3 h 47 min
Bit rate mode : Constant
Bit rate : 15.6 Mb/s
Nominal bit rate : 16.6 Mb/s
Width : 1 920 pixels
Height : 1 080 pixels
Display aspect ratio : 16:9
Frame rate : 25.000 FPS
Color space : YUV
Chroma subsampling : 4:2:0
Bit depth : 8 bits
Scan type : MBAFF
Bits/(Pixel*Frame) : 0.300
Stream size : 24.7 GiB (92%)
Color range : Limited
Color primaries : Bellator 242
Transfer characteristics : BT.709
Matrix coefficients : BT.709

Audio #1
ID : 256 (0x100)
Bellator 242
Format : MPEG Audio
Bellator 242
Duration : 3 h 47 min
Bit rate mode : Constant
Bit rate : 192 kb/s
Channel(s) : 2 channels
Sampling rate : 48.0 kHz
Frame rate : 41.667 FPS (1152 SPF)
Compression mode : Lossy
Delay relative to video : 8 ms
Stream size : 312 MiB (1%)
Language : English

Audio #2
ID : 257 (0x101)
Bellator 242
Format : MPEG Audio
Bellator 242
Duration : 3 h 47 min
Bit rate mode : Constant
Bit rate : 192 kb/s
Channel(s) : 2 channels
Sampling rate : 48.0 kHz
Frame rate : 41.667 FPS (1152 SPF)
Compression mode : Lossy
Bandejas vs Pettis
Language : German

Screen Shots

Bellator 242 Bandejas vs Pettis 1080i HDTV -WH
Bellator 242 Bandejas vs Pettis 1080i HDTV -WH
Bellator 242 Bandejas vs Pettis 1080i HDTV -WH
Subscribe 2 get this release

Bellator 242 Bandejas vs Pettis 1080i HDTV -WH

references

wrestling homepremium site

 286 total views,  1 views today

Bellator 242 Bandejas vs Pettis 1080i HDTV -WH

WH : Source OF Wrestling Releases / Home OF WH Releases

Buy Premium or Renew From WH Links to Keep it Alive

About PH.M.H

[Wrestling Best Uploader]

View all posts by PH.M.H →

Leave a Reply

Your email address will not be published. Required fields are marked *