Bellator 238 Prelims 540p / 720p WEBRIP x264-WH

Bellator 238 Prelims 540p / 720p WEBRIP x264-WH

Bellator 238 Prelims 540p / 720p WEBRIP x264-WH

Bellator.238.Prelims.720p.WEBRIP.x264-WH

General
Complete name : Bellator.238.Prelims.720p.WEBRIP.x264-WH.mp4
Format : MPEG-4
Format profile : Base Media
Codec ID : isom
File size : 4.69 GiB
Duration : 2h 24mn
Overall bit rate : 4 655 Kbps
Writing application : Lavf56.15.102

Video
ID : 1
Format : AVC
Format/Info : Advanced Video Codec
Codec ID : avc1
Codec ID/Info : Advanced Video Coding
Duration : 2h 24mn
Bit rate mode : Variable
Bit rate : 4 500 Kbps
Width : 1 280 pixels
Height : 720 pixels
Display aspect ratio : 16:9
Frame rate mode : Constant
Frame rate : 50.000 fps
Color space : YUV
Chroma subsampling : 4:2:0
Bit depth : 8 bits
Scan type : Progressive
Bits/(Pixel*Frame) : 0.098
Stream size : 4.53 GiB (96%)
Writing library : x264 core 142
Language : English

Audio
ID : 2
Format : AAC
Format/Info : Advanced Audio Codec
Format profile : LC
Codec ID : 40
Duration : 2h 24mn
Bit rate mode : Variable
Bit rate : 152 Kbps
Maximum bit rate : 224 Kbps
Channel(s) : 2 channels
Channel positions : Front: L R
Sampling rate : 44.1 KHz
Compression mode : Lossy
Stream size : 157 MiB (3%)
Language : English




fileup.cc/dqerdallih6e
rapidgator.net/file/ec9be71786bacfeabe4e325968522dc3
uploadgig.com/file/download/4929A64da3feda09
nitroflare.com/view/5715DB489060DB3
k2s.cc/file/a33c84d91bace

ddl.to/mhttnjercdph
ddl.to/94dqgxbr3908
ddl.to/yve7hoxmhqa6
ddl.to/rkdf1b24l13u
ddl.to/iezqm8lhack2

filefox.cc/316vbckertrv
filefox.cc/58v4w0sz450f
filefox.cc/30rcpxs7g0d1
filefox.cc/kzbpwxb29f8u
filefox.cc/xu2tpisgxhmo

rockfile.co/wulcf0jiggpg.html
rockfile.co/h8b8gvf9o5ye.html
rockfile.co/3e0lmbv9wb4h.html
rockfile.co/hwp4d4in3cfd.html
rockfile.co/w1mg9e13w9ha.html

Bellator.238.Prelims.540p.WEBRIP.x264-WH

General
Complete name : Bellator.238.Prelims.540p.WEBRIP.x264-WH.mp4
Format : MPEG-4
Codec ID : isom
File size : 1.67 GiB
Duration : 2h 24mn
Writing application : Lavf56.15.102

Video
ID : 1
Format : AVC
Codec ID : avc1
Duration : 2h 24mn
Bit rate mode : Variable
Bit rate : 1 500 Kbps
Width : 960 pixels
Height : 540 pixels
Display aspect ratio : 16:9
Frame rate mode : Constant
Frame rate : 50.000 fps
Color space : YUV
Chroma subsampling : 4:2:0
Bit depth : 8 bits
Scan type : Progressive
Bits/(Pixel*Frame) : 0.058
Stream size : 1.51 GiB (90%)
Writing library : x264 core 142
Language : English

Audio
ID : 2
Format : AAC
Format profile : LC
Codec ID : 40
Duration : 2h 24mn
Bit rate mode : Variable
Bit rate : 152 Kbps
Maximum bit rate : 192 Kbps
Channel(s) : 2 channels
Channel positions : Front: L R
Sampling rate : 44.1 KHz
Compression mode : Lossy
Stream size : 157 MiB (9%)
Language : English


ddl.to/liqwvwws5q87
dropapk.to/ac8k1diuhgby
earn4files.com/cjshz13dcnmw
filefox.cc/7u1tvbaa3zph
fileup.cc/w4n5wmye2ton
rapidgator.net/file/30d76078d1ec5a96bf02957c8dd1cd4c
rockfile.co/1r1jo7qvvb1a.html
speed-down.org/0htpxvk94lce
uploadgig.com/file/download/2238F2348480abc8
nitroflare.com/view/3F712359DEB580D
k2s.cc/file/8c54851d23b6c

ddl.to/ispeiiqc3ac5
ddl.to/k8dk71u6dyad
ddl.to/ctogw9rs5hqo
ddl.to/jlxcg2v4wm0w

rockfile.co/pupa6vtpmneu.html
rockfile.co/ch8x8i5h8nho.html
rockfile.co/ezq5n6ed072b.html
rockfile.co/09dq1mmx6zko.html

ul.to/0f3odb39
ul.to/o4ld4bdx
ul.to/6n6eeerx
ul.to/4zi95kwt

www1.zippyshare.com/v/HIjZESbf/file.html
www53.zippyshare.com/v/0JAU9V33/file.html
www92.zippyshare.com/v/4nHoSjqh/file.html
www88.zippyshare.com/v/BIRKQO2L/file.html

 131 total views,  1 views today

Bellator 238 Prelims 540p / 720p WEBRIP x264-WH

WH : Source OF Wrestling Releases / Home OF WH Releases

Buy Premium or Renew From WH Links to Keep it Alive

About PH.M.H

[Wrestling Best Uploader]

View all posts by PH.M.H →

One Comment on “Bellator 238 Prelims 540p / 720p WEBRIP x264-WH”

Leave a Reply

Your email address will not be published. Required fields are marked *