Bellator 238 540p / 720p WEBRIP x264-WH

Spread the love

Bellator 238 540p / 720p WEBRIP x264-WH

Bellator 238 540p / 720p WEBRIP x264-WH

Bellator 238 720p WEBRIP x264-WH

General
Complete name : Bellator.238.720p.WEBRIP.x264-WH.mp4
Format : MPEG-4
Format profile : Base Media
Codec ID : isom
File size : 5.56 GiB
Duration : 2h 50mn
Overall bit rate : 4 662 Kbps
Writing application : Lavf56.15.102

Video
ID : 1
Format : AVC
Format/Info : Advanced Video Codec
Format settings, CABAC : No
Format settings, ReFrames : 2 frames
Codec ID : avc1
Codec ID/Info : Advanced Video Coding
Duration : 2h 50mn
Bit rate mode : Variable
Bit rate : 4 500 Kbps
Width : 1 280 pixels
Height : 720 pixels
Display aspect ratio : 16:9
Frame rate mode : Constant
Frame rate : 50.000 fps
Color space : YUV
Chroma subsampling : 4:2:0
Bit depth : 8 bits
Scan type : Progressive
Bits/(Pixel*Frame) : 0.098
Stream size : 5.36 GiB (96%)
Writing library : x264 core 142

Audio
ID : 2
Format : AAC
Format/Info : Advanced Audio Codec
Format profile : LC
Codec ID : 40
Duration : 2h 50mn
Bit rate mode : Variable
Bit rate : 152 Kbps
Maximum bit rate : 192 Kbps
Channel(s) : 2 channels
Channel positions : Front: L R
Sampling rate : 44.1 KHz
Compression mode : Lossy
Stream size : 185 MiB (3%)
Language : English

nitroflare.com/view/2665972A11D26F0
nitroflare.com/view/971DF37F58F1609
nitroflare.com/view/13720990E1D4A3D
nitroflare.com/view/49A43BC661EAE34
nitroflare.com/view/A224B12FD8FFA03
nitroflare.com/view/0166B744067BED2

ddl.to/lk3v4rzn873h
ddl.to/7c4nf09vfv35
ddl.to/a2qfp5yydzz5
ddl.to/5hgky0epnhe7
ddl.to/z64cpyy62wbe
ddl.to/hoh51j5udiza

filefox.cc/posm3jkdwvxu
filefox.cc/h2v2fay8710k
filefox.cc/baw74y86l994
filefox.cc/21c3tut8nv6n
filefox.cc/v0kse6up7p8o
filefox.cc/aqh5b7bhrei9

rockfile.co/7ximsztb1x93.html
rockfile.co/ub8y3ixw0mm2.html
rockfile.co/rdfiwzlore53.html
rockfile.co/w4pu0ndggu9v.html
rockfile.co/4fatq88yfzo1.html
rockfile.co/8wy0psn5xdzq.html

fileup
fileup.cc/5h0i36hbxjki

k2s
k2s.cc/file/f2d4e079876fd

nitroflare
nitroflare.com/view/152DE1C44D96BBB

rapidgator
rapidgator.net/file/5604fda2054876ea26f5f7a87c1a6e9a

uploadgig
uploadgig.com/file/download/B4E768C702f048Ed

General
Complete name : Bellator.238.540p.WEBRIP.x264-WH.mp4
Codec ID : isom
File size : 1.98 GiB
Duration : 2h 50mn
Overall bit rate : 1 661 Kbps
Writing application : Lavf56.15.102

Video
ID : 1
Format : AVC
Codec ID : avc1
Duration : 2h 50mn
Bit rate mode : Variable
Bit rate : 1 500 Kbps
Width : 960 pixels
Height : 540 pixels
Display aspect ratio : 16:9
Frame rate mode : Constant
Frame rate : 50.000 fps
Color space : YUV
Chroma subsampling : 4:2:0
Bit depth : 8 bits
Scan type : Progressive
Bits/(Pixel*Frame) : 0.058
Stream size : 1.79 GiB (90%)
Writing library : x264 core 142
Language : English

Audio
ID : 2
Format : AAC
Codec ID : 40
Duration : 2h 50mn
Bit rate mode : Variable
Bit rate : 152 Kbps
Maximum bit rate : 192 Kbps
Channel(s) : 2 channels
Channel positions : Front: L R
Sampling rate : 44.1 KHz
Compression mode : Lossy
Stream size : 185 MiB (9%)
Language : English


ddl.to/mrecaypalyi1
dropapk.to/hms3cxfag2md
earn4files.com/af8ttvionsq6
filefox.cc/4nnvnu61npgz
fileup.cc/6nr1ordahb9z
rapidgator.net/file/858b03db850f9affc7003cd9ca03d979
rockfile.co/uqytorsngs7t.html
uploadgig.com/file/download/fE70d8839bff146E
nitroflare.com/view/A1D93311B55E821
k2s.cc/file/53adf99ef3e87

ul.to/vlj6c30f
ul.to/f8hafd2f
ul.to/ykmt904f
ul.to/5nz0hzbq
ul.to/uw1oxza8

www34.zippyshare.com/v/pYTUgHWx/file.html
www58.zippyshare.com/v/C5sInZ4F/file.html
www92.zippyshare.com/v/kjohmyGY/file.html
www54.zippyshare.com/v/QeppmmLW/file.html
www13.zippyshare.com/v/zvlM4ESS/file.html
Bellator 238 540p / 720p WEBRIP x264-WH

About PH.M.H

[Wrestling Best Uploader]

View all posts by PH.M.H →

One Comment on “Bellator 238 540p / 720p WEBRIP x264-WH”

Leave a Reply

Your email address will not be published. Required fields are marked *