Leon Warriors Fighting League Stage 1 1080i HDTV -WH

Leon Warriors Fighting League Stage 1 1080i HDTV -WH [25.5 GB]


General
Complete name : Leon.Warriors.Fighting.League.Stage.1.1080i.HDTV-WH.ts
Format : MPEG-TS
File size : 25.4 GiB
Duration : 3 h 54 min
Overall bit rate mode : Variable
Overall bit rate : 15.6 Mb/s

Video
Format : AVC
Codec ID : 27
Duration : 3 h 54 min
Bit rate : 14.1 Mb/s
Width : 1 920 pixels
Height : 1 080 pixels
Display aspect ratio : 16:9
Frame rate : 25.000 FPS
Color space : YUV
Chroma subsampling : 4:2:0
Bit depth : 8 bits
Scan type : Interlaced
Scan type, store method : Separated fields
Scan order : Top Field First
Bits/(Pixel*Frame) : 0.273
Stream size : 23.1 GiB (91%)
Color range : Limited
Color primaries : BT.709
Transfer characteristics : BT.709
Matrix coefficients : BT.709

Audio #1
Format : MPEG Audio
Format version : Version 1
Format profile : Layer 2
Format settings : Dual mono
Codec ID : 3
Duration : 3 h 54 min
Bit rate mode : Constant
Bit rate : 320 kb/s
Channel(s) : 2 channels
Sampling rate : 48.0 kHz
Frame rate : 41.667 FPS (1152 SPF)
Compression mode : Lossy
Stream size : 536 MiB (2%)
Language : English

Audio #2
Format : MPEG Audio
Format version : Version 1
Format profile : Layer 2
Codec ID : 3
Duration : 3 h 54 min
Bit rate mode : Constant
Bit rate : 320 kb/s
Channel(s) : 2 channels
Sampling rate : 48.0 kHz
Frame rate : 41.667 FPS (1152 SPF)
Compression mode : Lossy
Stream size : 536 MiB (2%)
Language : English

One Comment on “Leon Warriors Fighting League Stage 1 1080i HDTV -WH”

Leave a Reply

Your email address will not be published. Required fields are marked *