Ladies Night Out 8 iPPV 2019 1080p -WH

Ladies Night Out 8 iPPV 2019 1080p WEB x264-WH

Description This is the Ladies Night Out 8 iPPV Replay exclusively ! Watch as we crown the 1st ever Ladies Night Out champion! 8 first time ever match-ups! LNO Title Match Ivelisse vs Miranda Alize Last Time Ever Thunder Rosa vs Holidead Kiera Hogan vs Diamante Leyla Hirsch vs Lindsay Snow Hurricane Pro Title Match Heather Monroe vs Riley x Paris Jazz vs Phoebe Veda Scott vs Ivory Robyn Harlow O’Hara & Alejandra the Lion vs Vert Vixen & Madi Wrenkowski Myka Madrid & Viki Vee Vento vs Trouble in Texas

General
Complete name : Ladies.Night.Out.8.iPPV.2019.1080p.WEB.x264-WH.mp4
Format : MPEG-4
Format profile : Base Media
Codec ID : isom
File size : 4.43 GiB
Duration : 2h 27mn
Overall bit rate : 4 295 Kbps

Video
ID : 1
Format : AVC
Format/Info : Advanced Video Codec
Format profile : [email protected]
Format settings, CABAC : Yes
Format settings, ReFrames : 3 frames
Codec ID : avc1
Codec ID/Info : Advanced Video Coding
Duration : 2h 27mn
Bit rate mode : Variable
Bit rate : 4 093 Kbps
Width : 1 912 pixels
Original width : 1 920 pixels
Height : 1 088 pixels
Original height : 1 080 pixels
Display aspect ratio : 16:9
Original display aspect ratio : 16:9
Frame rate mode : Variable
Frame rate : 29.970 fps
Minimum frame rate : 5.994 fps
Maximum frame rate : 120.000 fps
Color space : YUV
Chroma subsampling : 4:2:0
Bit depth : 8 bits
Scan type : Progressive
Bits/(Pixel*Frame) : 0.066
Stream size : 4.22 GiB (95%)

Audio
ID : 2
Format : AAC
Format/Info : Advanced Audio Codec
Format profile : LC
Codec ID : 40
Duration : 2h 27mn
Bit rate mode : Variable
Bit rate : 192 Kbps
Maximum bit rate : 296 Kbps
Channel(s) : 2 channels
Channel positions : Front: L R
Sampling rate : 48.0 KHz
Compression mode : Lossy
Stream size : 203 MiB (4%)

nitroflare
http://nitroflare.com/view/98BD8A2229EDA59



katfile
http://katfile.com/1bnt1uwwkger
http://katfile.com/cf8adf4s684k
http://katfile.com/nqd24sfnvzlw
http://katfile.com/7g6ycoia6qlk
http://katfile.com/m9kl7d0e1cu3

nitroflare
http://nitroflare.com/view/6C85FB317AB6879
http://nitroflare.com/view/7AFC97825BF5E1E
http://nitroflare.com/view/B4F3557CA749A3C
http://nitroflare.com/view/757D38D35AEA5F3
http://nitroflare.com/view/5024BE12E231F89

5 Comments on “Ladies Night Out 8 iPPV 2019 1080p -WH”

  1. “This file is available with Premium only. Reason: this file is larger than 1024mb.”

    Cool so yo have to pay to watch or download

    1. * nitroflare rars 4 free as one 1 link is 1 GB
      * u dont have to pay to watch or download as soon as possible i will upload 720p totally for free and watch online
      * u must know WH pay to bring this caps sir [a little support from fans allow us to keep alive with exclusive material like this file sir ]

  2. That info i posted was from Nitroflare. I also just re did it to get the same message

    So yes you do have to pay to download this file. There was no option to just watch.

    Thanks anyways. I dont feel the need to pay to seen indy work i might not like..thats cool you want support for the site, but yet, i also have to support the site thats actually hosting the file

    Either way its all good
    thanks anyways…ill keep looking

    1. u dont have to support site having the FILE if u support WH as at wrestling-home.vip
      more than 30 file hosters all are free sir , also there is a special Download Server i pay to it
      to allOW me upload for free maximum size and give us maximun download for all users
      its madness to ask users support me and support the file hoster
      * all in all suport wrestling-home means alot !!
      site will keep alive with all exclusive content just follow us u will see what can we do ?
      * also if fans support with little that means alot
      * simple donation from you i will give you 1 month free and check the service all thing

Leave a Reply

Your email address will not be published. Required fields are marked *