KSW 51 Full Event 2019 720p WEBRIP x264-WH

KSW 51 Full Event 2019 720p WEBRIP x264-WH

 KSW 51 Full Event 2019 720p WEB-WH
KSW.51.Full.Event.2019.720p.WEBRIP.x264-WH

General
Complete name                    :  
KSW.51.Full.Event.2019.720p.WEBRIP.x264-WH.mp4
Format                           : MPEG-4
Format profile                   : Base Media
Codec ID                         : isom
File size                        : 9.86 GiB
Duration                         : 5h 2mn
Overall bit rate                 : 4 660 Kbps
Encoded date                     : UTC 2019-09-26 20:46:25
Tagged date                      : UTC 2019-09-26 20:46:25
Writing application              : Lavf56.15.102

Video
ID                               : 1
Format                           : AVC
Format/Info                      : Advanced Video Codec
Format profile                   : [email protected]
Format settings, CABAC           : No
Format settings, ReFrames        : 2 frames
Codec ID                         : avc1
Codec ID/Info                    : Advanced Video Coding
Duration                         : 5h 2mn
Bit rate mode                    : Variable
Bit rate                         : 4 500 Kbps
Width                            : 1 280 pixels
Height                           : 720 pixels
Display aspect ratio             : 16:9
Frame rate mode                  : Constant
Frame rate                       : 60.000 fps
Color space                      : YUV
Chroma subsampling               : 4:2:0
Bit depth                        : 8 bits
Scan type                        : Progressive
Bits/(Pixel*Frame)               : 0.081
Stream size                      : 9.51 GiB (96%)
Writing library                  : x264 core 142
Language                         : English
Encoded date                     : UTC 2019-09-26 20:46:25
Tagged date                      : UTC 2019-09-26 20:46:25

Audio
ID                               : 2
Format                           : AAC
Format/Info                      : Advanced Audio Codec
Format profile                   : LC
Codec ID                         : 40
Duration                         : 5h 2mn
Bit rate mode                    : Variable
Bit rate                         : 152 Kbps
Maximum bit rate                 : 192 Kbps
Channel(s)                       : 2 channels
Channel positions                : Front: L R
Sampling rate                    : 44.1 KHz
Compression mode                 : Lossy
Stream size                      : 329 MiB (3%)
Language                         : English
Encoded date                     : UTC 2019-09-26 20:46:25
Tagged date                      : UTC 2019-09-26 20:46:25

dropapk

https://dropapk.to/euvpy8mwivu1

fileup
https://fileup.cc/cqsssjr5hyq2

nitroflare
http://nitroflare.com/view/BB21D618A5EA2CC

rapidgator
https://rapidgator.net/file/0b9d9ae3eb0b0d3e5b0a1178bebfa7c7

Leave a Reply

Your email address will not be published. Required fields are marked *