PWG 200 720p

Pro Wrestling Guerrilla 200 720p

Download PWG 200 720p full Event At Direct links

PWG 200 720p

Pro Wrestling Guerrilla 200 720p

Pro Wrestling Guerrilla presents “200” held March 1, 2019 in Los Angeles, CA

Three-way Match
Jake Atlas vs. Jungle Boy vs. Trey Miguel

Singles Match
Laredo Kid vs. Puma King

Tag Team Match
Aussie Open (Mark Davis & Kyle Fletcher) vs. Best Friends (Chuck Taylor & Trent?)

Singles Match
Darby Allin vs. Brody King

Singles Match
Jonathan Gresham vs. David Starr

Pro Wrestling Guerrilla World Tag Team Championship Title Three-way Match
The Rascalz (Zachary Wentz & Dezmond Xavier – Champions) vs. LAX (Ortiz & Santana) vs. Lucha Brothers (REY FENIX & PENTA EL ZERO M)

Pro Wrestling Guerrilla World Championship Title Match
Jeff Cobb (Champion) vs. Bandido (Challenger)

General
Complete name : PWG-200.720p.mp4
Format : MPEG-4
Format profile : Base Media / Version 2
Codec ID : mp42 (mp42/mp41)
File size : 3.68 GiB
Duration : 2 h 7 min
Overall bit rate mode : Variable
Overall bit rate : 4 122 kb/s
Encoded date : UTC 2019-03-14 21:32:59
Tagged date : UTC 2019-03-14 21:43:20
TIM : 00;00;00;00
TSC : 30000
TSZ : 1001

Video
ID : 1
Format : AVC
Format/Info : Advanced Video Codec
Format profile : [email protected]
Format settings : CABAC / 3 Ref Frames
Format settings, CABAC : Yes
Format settings, Reference : 3 frames
Codec ID : avc1
Codec ID/Info : Advanced Video Coding
Duration : 2 h 7 min
Source duration : 2 h 7 min
Bit rate mode : Variable
Bit rate : 3 800 kb/s
Maximum bit rate : 5 000 kb/s
Width : 1 280 pixels
Height : 720 pixels
Display aspect ratio : 16:9
Frame rate mode : Constant
Frame rate : 29.970 (30000/1001) FPS
Standard : NTSC
Color space : YUV
Chroma subsampling : 4:2:0
Bit depth : 8 bits
Scan type : Progressive
Bits/(Pixel*Frame) : 0.138
Stream size : 3.39 GiB (92%)
Source stream size : 3.39 GiB (92%)
Language : English
Encoded date : UTC 2019-03-14 21:32:59
Tagged date : UTC 2019-03-14 21:32:59
Color range : Limited
Color primaries : BT.709
Transfer characteristics : BT.709
Matrix coefficients : BT.709
Codec configuration box : avcC

Audio
ID : 2
Format : AAC LC
Format/Info : Advanced Audio Codec Low Complexity
Codec ID : mp4a-40-2
Duration : 2 h 7 min
Source duration : 2 h 7 min
Bit rate mode : Variable
Bit rate : 317 kb/s
Maximum bit rate : 456 kb/s
Channel(s) : 2 channels
Channel layout : L R
Sampling rate : 48.0 kHz
Frame rate : 46.875 FPS (1024 SPF)
Compression mode : Lossy
Stream size : 290 MiB (8%)
Source stream size : 290 MiB (8%)
Language : English
Encoded date : UTC 2019-03-14 21:32:59
Tagged date : UTC 2019-03-14 21:32:59

PWG 200 720p

lINKS TO SUPPORT WH

dailyuploads

dailyuploads.net/mymu4rp6tweq

nitroflare
nitroflare.com/view/D7F2DBFD465F157

Rapidgator
rg.to/file/8d5f04ba221ffd7258f2959ca888575e

dailyuploads

dailyuploads.net/mymu4rp6tweq

1 GB [4 PARTS] // INTERCHANGEABLE LINKS

uptomega

uptomega.com/z34iuz64pve0
uptomega.com/y0bxmnll48on
uptomega.com/mv8tpvdflwz6
uptomega.com/blq1k2g1r2yf

dailyuploads

N/A

dailyuploads.net/0pxycb0j5mxm
dailyuploads.net/dc3qagw8z8m2
dailyuploads.net/c9qmmzuukmso

nitroflare

nitroflare.com/view/A396C9EE36D479E
nitroflare.com/view/299328D2BD65326
nitroflare.com/view/14CBE7778539C77
nitroflare.com/view/601B8B98C9E82B4

Rapidgator

rg.to/file/80439334585b60e3853ffe39a1c74144
rg.to/file/da22570ac7976c80a03e9aba8f651222
rg.to/file/6579d4b91d0441106a7bfc6b4b5c3454
rg.to/file/bc79391897c8ea97bdabac82b059e7af

1fichier

1fichier.com/?jo2omjtbzhto7yhhozdq
1fichier.com/?z83fd8597peplspnr220
1fichier.com/?ana7t34mi0x451fzvapp
1fichier.com/?oq0uyf9a8bcjxlm1kvpu

dl.free.fr

dl.free.fr/fyFifAt2l
dl.free.fr/rNZ9zC7Hx
dl.free.fr/hZYrYpoKT
dl.free.fr/noHrFGALF

filefactory
www.filefactory.com/file/62w6xeqt84b5
www.filefactory.com/file/2h1pylm9pk5p
www.filefactory.com/file/55ur7xukpfbx
www.filefactory.com/file/27odvmguc8sn

filestore
filestore.to/?d=OB23RJRNLY
filestore.to/?d=C2CH3X5JLX
filestore.to/?d=6Z1PJK1K3P
filestore.to/?d=BRJ5MT4OQB

uptobox

uptobox.com/xymwpf7f6ijv
uptobox.com/35r7dwqdmhni
uptobox.com/rhj018afkl3g
uptobox.com/sy7vtuf2l5f5

multiup

multiup.org/download/02fca9a2619ae9dd94b5e2da75a85d11
multiup.org/download/e2fe70729da7e2cff621b30f9ea84663
multiup.org/download/3ac19f68371a4d48b783935a4317c936
multiup.org/download/c852299048a87238c808190d7aecc32f

 130 total views,  1 views today

PWG 200 720p

WH : Source OF Wrestling Releases / Home OF WH Releases

Buy Premium or Renew From WH Links to Keep it Alive

About PH.M.H

[Wrestling Best Uploader]

View all posts by PH.M.H →

4 Comments on “PWG 200 720p”

Leave a Reply

Your email address will not be published. Required fields are marked *