PWG 200 480p x264-WH

PWG 200 480p x264-WH

Download PWG 200 Full event 480p version at free direct servers

PWG 200 480p x264-WH

Pro Wrestling Guerrilla 200 480p x264-WH

PWG 200 480p x264-WH

Name – PWG.200.480p.x264-WH
Released – 06.20.2019
SOURCE – 720p
Size – 1.90 GB
Container – MP4
Resolution – 712 x 400 (16:9) @ 25 FPS
Video – x264 @ 2000 KBPS
Audio – AAC 128 KBPS
Length – 02:07:53
Encoder – WH Crew

Note : Special thanks to sigmanhunt

General
Complete name : PWG-200.x264-WH.mp4
Format : MPEG-4
Format profile : Base Media
Codec ID : isom (isom/iso2/avc1/mp41)
File size : 1.91 GiB
Duration : 2 h 7 min
Overall bit rate : 2 135 kb/s
Encoded date : UTC 2019-03-14 21:32:59
Tagged date : UTC 2019-03-14 21:32:59
Writing application : Lavf56.15.102

Video
ID : 1
Format : AVC
Format/Info : Advanced Video Codec
Format profile : [email protected]
Format settings : 2 Ref Frames
Format settings, CABAC : No
Format settings, Reference : 2 frames
Codec ID : avc1
Codec ID/Info : Advanced Video Coding
Duration : 2 h 7 min
Bit rate : 2 000 kb/s
Width : 712 pixels
Height : 400 pixels
Display aspect ratio : 16:9
Frame rate mode : Constant
Frame rate : 25.000 FPS
Color space : YUV
Chroma subsampling : 4:2:0
Bit depth : 8 bits
Scan type : Progressive
Bits/(Pixel*Frame) : 0.281
Stream size : 1.79 GiB (94%)
Writing library : x264 core 142
Language : English
Encoded date : UTC 2019-03-14 21:32:59
Tagged date : UTC 2019-03-14 21:32:59
Codec configuration box : avcC

Audio
ID : 2
Format : AAC LC
Format/Info : Advanced Audio Codec Low Complexity
Codec ID : mp4a-40-2
Duration : 2 h 7 min
Duration_LastFrame : -19 ms
Bit rate mode : Constant
Bit rate : 128 kb/s
Channel(s) : 2 channels
Channel layout : L R
Sampling rate : 44.1 kHz
Frame rate : 43.066 FPS (1024 SPF)
Compression mode : Lossy
Stream size : 117 MiB (6%)
Language : English
Default : Yes
Alternate group : 1
Encoded date : UTC 2019-03-14 21:32:59
Tagged date : UTC 2019-03-14 21:32:59

PWG 200 480p x264-WH

lINKS TO SUPPORT WH

rapidgator

rapidgator.net/file/39ab7f91face09435f4c6bea2b181e61

bdupload.asia

dl.bdupload.in/4ebflqyftm83

nitroflare
nitroflare.com/view/72AC64F146EE738

uploadgig
uploadgig.com/file/download/498921344f44Bde8

uptomega

uptomega.com/t05j76mrx6ok

userscloud
userscloud.com/gyvgf8nq9i7i

wdupload
www.wdupload.com/file/A6qAuLAkWOTyfyn0b-X1Yg

 159 total views,  1 views today

PWG 200 480p x264-WH

WH : Source OF Wrestling Releases / Home OF WH Releases

Buy Premium or Renew From WH Links to Keep it Alive

About PH.M.H

[Wrestling Best Uploader]

View all posts by PH.M.H →

10 Comments on “PWG 200 480p x264-WH”

Leave a Reply

Your email address will not be published. Required fields are marked *