PROGRESS Wrestling 2019 05 26 Chapter 89 The 80s Cut 1080p

PROGRESS Wrestling 2019 05 26 Chapter 89 The 80s Cut 1080p WEB h264-iNDYHEEL

Download The 80s Cut version of PROGRESS Wrestling 2019 05 26 Chapter 89 free hosts

PROGRESS Wrestling 2019 05 26 Chapter 89 The 80s Cut 1080p
PROGRESS.Wrestling.2019.05.26.Chapter.89.The.80s.Cut.1080p.WEB.h264-iNDYHEEL



Difference with last one is this one has commentary.

Chapter 89: 26th May 1988 – The 80s Cut

Show date: 26th May 2019

Featuring:

Davey American vs “The Baba Yaga” Idris Alexiyev

The Doctor vs Marty Fox

Wally Handford vs The Teflon Sheik

The Sheepwhacker Cousins vs Blumenfeld, Harrington-Smythe & Jones

The Kung-Fu Kid vs Johnny Swayze

“The Look” Mariah Eagan vs Candy Lauper

Dirty Daddy Overkill vs Detective Inspector Colin Klein

General
Complete name : PROGRESS.Wrestling.2019.05.26.Chapter.89.The.80s.Cut.1080p.WEB.h264-iNDYHEEL.mp4
Format : MPEG-4
Format profile : Base Media
Codec ID : isom (isom/iso2/avc1/mp41)
File size : 4.01 GiB
Duration : 2 h 18 min
Overall bit rate : 4 159 kb/s
Writing application : Lavf58.27.103

Video
ID : 1
Format : AVC
Format/Info : Advanced Video Codec
Format profile : [email protected]
Format settings : CABAC / 3 Ref Frames
Format settings, CABAC : Yes
Format settings, Reference : 3 frames
Codec ID : avc1
Codec ID/Info : Advanced Video Coding
Duration : 2 h 18 min
Bit rate : 3 959 kb/s
Width : 1 920 pixels
Height : 1 080 pixels
Display aspect ratio : 16:9
Frame rate mode : Variable
Frame rate : 25.000 FPS
Color space : YUV
Chroma subsampling : 4:2:0
Bit depth : 8 bits
Scan type : Progressive
Bits/(Pixel*Frame) : 0.076
Stream size : 3.82 GiB (95%)
Codec configuration box : avcC

Audio
ID : 2
Format : AAC LC
Format/Info : Advanced Audio Codec Low Complexity
Codec ID : mp4a-40-2
Duration : 2 h 18 min
Bit rate mode : Constant
Bit rate : 192 kb/s
Channel(s) : 2 channels
Channel layout : L R
Sampling rate : 48.0 kHz
Frame rate : 46.875 FPS (1024 SPF)
Compression mode : Lossy
Stream size : 190 MiB (5%)
Default : Yes
Alternate group : 1

PROGRESS Wrestling 2019 05 26 Chapter 89 The 80s Cut 1080p

dailyuploads

dailyuploads.net/1zmursafp5r6

nitroflare
nitroflare.com/view/0122B1950E7A58F

Rapidgator
rg.to/file/12db3f5fb1f036ac256df7c6bf8f294b

 117 total views,  1 views today

PROGRESS Wrestling 2019 05 26 Chapter 89 The 80s Cut 1080p

WH : Source OF Wrestling Releases / Home OF WH Releases

Buy Premium or Renew From WH Links to Keep it Alive

About PH.M.H

[Wrestling Best Uploader]

View all posts by PH.M.H →

Leave a Reply

Your email address will not be published. Required fields are marked *