PROGRESS 2020 02 23 Chapter 103 Beer Snake City 1080p

PROGRESS 2020 02 23 Chapter 103 Beer Snake City 1080p WEB x264-WH

PROGRESS 2020 02 23 Chapter 103 Beer Snake City 1080p

General
Complete name : PROGRESS.2020.02.23.Chapter.103.Beer.Snake.City.1080p.WEB.x264-WH.mp4
Format : MPEG-4
Format profile : Base Media
Codec ID : isom (isom/iso2/avc1/mp41)
File size : 4.59 GiB
Duration : 2 h 36 min
Overall bit rate : 4 197 kb/s
Writing application : Lavf58.29.100

Video
Format : AVC
Duration : 2 h 36 min
Bit rate : 3 997 kb/s
Width : 1 920 pixels
Height : 1 080 pixels
Display aspect ratio : 16:9
Frame rate mode : Variable
Frame rate : 23.976 FPS
Minimum frame rate : 23.968 FPS
Maximum frame rate : 90 000.000 FPS
Color space : YUV
Chroma subsampling : 4:2:0
Bit depth : 8 bits
Scan type : Progressive
Bits/(Pixel*Frame) : 0.080
Stream size : 4.37 GiB (95%)
Codec configuration box : avcC

Audio
Format : AAC LC
Codec ID : mp4a-40-2
Duration : 2 h 36 min
Bit rate mode : Constant
Bit rate : 192 kb/s
Channel(s) : 2 channels
Channel layout : L R
Sampling rate : 48.0 kHz
Frame rate : 46.875 FPS (1024 SPF)
Compression mode : Lossy
Stream size : 215 MiB (5%)
Default : Yes
Alternate group : 1

 111 total views,  4 views today

About PH.M.H

[Wrestling Best Uploader]

View all posts by PH.M.H

One Comment on “PROGRESS 2020 02 23 Chapter 103 Beer Snake City 1080p”

Leave a Reply

Your email address will not be published. Required fields are marked *