PROGRESS 2020 01 19 Chapter 101 Dalmatians 1080p

PROGRESS 2020 01 19 Chapter 101 Dalmatians 1080p WEB x264-WH

PROGRESS 2020 01 19 Chapter 101 Dalmatians 1080p

PROGRESS.2020.01.19.Chapter.101.Dalmatians.1080p.WEB.x264-WH.mp4
Format : MPEG-4
Format profile : Base Media
File size : 4.56 GiB
Duration : 2 h 41 min
Overall bit rate : 4 032 kb/s
Writing application : Lavf58.29.100

Video
Format : AVC
Codec ID : avc1
Duration : 2 h 41 min
Duration_FirstFrame : -40 ms
Bit rate : 3 832 kb/s
Width : 1 920 pixels
Height : 1 080 pixels
Display aspect ratio : 16:9
Frame rate mode : Variable
Frame rate : 25.000 FPS
Minimum frame rate : 25.000 FPS
Maximum frame rate : 25.007 FPS
Color space : YUV
Chroma subsampling : 4:2:0
Bit depth : 8 bits
Scan type : Progressive
Bits/(Pixel*Frame) : 0.074
Stream size : 4.34 GiB (95%)
Codec configuration box : avcC

Audio
Format : AAC LC
Codec ID : mp4a-40-2
Duration : 2 h 41 min
Bit rate mode : Constant
Bit rate : 192 kb/s
Channel(s) : 2 channels
Channel layout : L R
Sampling rate : 48.0 kHz
Frame rate : 46.875 FPS (1024 SPF)
Compression mode : Lossy
Stream size : 222 MiB (5%)
Default : Yes
Alternate group : 1

 62 total views,  2 views today

About PH.M.H

[Wrestling Best Uploader]

View all posts by PH.M.H

One Comment on “PROGRESS 2020 01 19 Chapter 101 Dalmatians 1080p”

Leave a Reply

Your email address will not be published. Required fields are marked *