Over The Top Wrestling 2019 06 23 WrestleRama 3 1080p

Over The Top Wrestling 2019 06 23 WrestleRama 3 1080p

Download OTTW 2019 06 23 WrestleRama 3 1080p Free links

Over The Top Wrestling 2019 06 23 WrestleRama 3 1080p

OTTW WrestleRama 3 2019 1080p

Over.The.Top.Wrestling.2019.06.23.WrestleRama.3.1080p.WEB.h264-iNDYHEEL 

– 

National Basketball Arena, Dublin, June 23rd, 2019 

Puma King vs Justy 

Raven Creed & Jimmy Havoc vs Valkyrie & CT Flexor 

More Than Hype vs The Angel Cruzers & Martina 

Scotty Davis vs Darby Allin 

Bandido vs Rey Horus 

OTT GN Championship: Mark Haskins vs Terry Thatcher 

Club Tropicana vs The Rapture 

OTT World Championship: Jordan Devlin vs Sean Guinness 

David Starr vs WALTER

General
Complete name : Over.The.Top.Wrestling.2019.06.23.WrestleRama.3.1080p.WEB.h264-iNDYHEEL.mp4
Format : MPEG-4
Format profile : Base Media
Codec ID : isom (isom/iso2/avc1/mp41)
File size : 6.63 GiB
Duration : 3 h 41 min
Overall bit rate : 4 290 kb/s
Writing application : Lavf58.27.103

Video
ID : 1
Format : AVC
Format/Info : Advanced Video Codec
Format profile : [email protected]
Format settings : CABAC / 3 Ref Frames
Format settings, CABAC : Yes
Format settings, Reference : 3 frames
Codec ID : avc1
Codec ID/Info : Advanced Video Coding
Duration : 3 h 41 min
Bit rate : 4 090 kb/s
Width : 1 920 pixels
Height : 1 080 pixels
Display aspect ratio : 16:9
Frame rate mode : Variable
Frame rate : 25.000 FPS
Color space : YUV
Chroma subsampling : 4:2:0
Bit depth : 8 bits
Scan type : Progressive
Bits/(Pixel*Frame) : 0.079
Stream size : 6.32 GiB (95%)
Codec configuration box : avcC

Audio
ID : 2
Format : AAC LC
Format/Info : Advanced Audio Codec Low Complexity
Codec ID : mp4a-40-2
Duration : 3 h 41 min
Bit rate mode : Constant
Bit rate : 192 kb/s
Channel(s) : 2 channels
Channel layout : L R
Sampling rate : 48.0 kHz
Frame rate : 46.875 FPS (1024 SPF)
Compression mode : Lossy
Stream size : 304 MiB (4%)
Default : Yes
Alternate group : 1

Size6.63 GB
Over The Top Wrestling 2019 06 23 WrestleRama 3 1080p

1fichier.com/?xa1ppq4qwy8usrsf8c16
dl.free.fr/vAtiK0ocs
multiup.org/download/fdfeda8983c2a9cea1ff5d831f1ac83e
turbobit.net/6pzoyri8bbaa.html
uptobox.com/ljqnyqivg671

 116 total views,  1 views today

Over The Top Wrestling 2019 06 23 WrestleRama 3 1080p

WH : Source OF Wrestling Releases / Home OF WH Releases

Buy Premium or Renew From WH Links to Keep it Alive

About PH.M.H

[Wrestling Best Uploader]

View all posts by PH.M.H →

Leave a Reply

Your email address will not be published. Required fields are marked *