The Wrestling Revolver St Valentines Day Massacre 2020 720p

Spread the love

The Wrestling Revolver St Valentines Day Massacre 2020 720p WEBRip x264-WH

The Wrestling Revolver St Valentines Day Massacre 2020 720p

General
Name : The.Wrestling.Revolver.St.Valentines.Day.Massacre.2020.720p.WEBRip.x264-WH.mp4
Format : MPEG-4
File size : 3.84 GiB
Duration : 2 h 53 min
Overall bit rate : 3 163 kb/s
Writing application : Lavf58.35.104
Copyright : copyright
Comment : description

Video
ID : 1
Format : AVC
Codec ID : avc1
Duration : 2 h 53 min
Bit rate : 3 000 kb/s
Width : 1 280 pixels
Height : 720 pixels
Display aspect ratio : 16:9
Frame rate mode : Variable
Frame rate : 30.000 FPS
Minimum frame rate : 29.412 FPS
Maximum frame rate : 30.303 FPS
Color space : YUV
Chroma subsampling : 4:2:0
Bit depth : 8 bits
Scan type : Progressive
Bits/(Pixel*Frame) : 0.109
Stream size : 3.65 GiB (95%)
Codec configuration box : avcC

Audio
ID : 2
Format : AAC LC
Codec ID : mp4a-40-2
Duration : 2 h 53 min
Bit rate mode : Constant
Bit rate : 155 kb/s
Channel(s) : 2 channels
Channel layout : L R
Sampling rate : 44.1 kHz
Frame rate : 43.066 FPS (1024 SPF)
Compression mode : Lossy
Stream size : 193 MiB (5%)
Title : Track1
Default : Yes
Alternate group : 1


Lineup:

6 Man Tag – Dream Match
StrongHearts vs Ace Austin, Alex Zayne, & Blake Christian

NO DQ
Sami Callihan vs Jessica Havok

Barbed Wire Boards Match
Alex Colon vs Jake Crist

Fans Bring The Weapons
Ace Romero vs Nick Gage

Battle Of The Bulls
Larry D vs 1 Called Manders

WarHausen vs Manscout & Murray

Revolver Tag Team Championship – #1 Contendership
Ove vs The Razcals vs Logan James & Tyler Matrix

Bonus Scramble Match

*Card Subject To Change
The Wrestling Revolver St Valentines Day Massacre 2020 720p

About PH.M.H

[Wrestling Best Uploader]

View all posts by PH.M.H →

2 Comments on “The Wrestling Revolver St Valentines Day Massacre 2020 720p”

Leave a Reply

Your email address will not be published. Required fields are marked *