NWA Hard Times PPV 2020 720p WEBRIP x264-WH

Spread the love

NWA Hard Times PPV 2020 720p WEBRIP x264-WH

NWA Hard Times PPV 2020 720p WEBRIP x264-WH
DescriptionNWA.Hard.Times.PPV.2020.720p.WEBRIP.x264-WH

General
Complete name :NWA.Hard.Times.PPV.2020.720p.WEBRIP.x264-WH.mp4
Codec ID : isom
File size : 3.34 GiB
Duration : 2h 31mn
Overall bit rate : 3 163 Kbps
Encoded date : UTC 2020-01-25 02:39:30
Tagged date : UTC 2020-01-25 02:39:30
Writing application : Lavf58.25.100
Copyright : copyright
Comment : description

Video
ID : 1
Format : AVC
Codec ID : avc1
Codec ID/Info : Advanced Video Coding
Duration : 2h 31mn
Bit rate mode : Variable
Bit rate : 3 000 Kbps
Width : 1 280 pixels
Height : 720 pixels
Display aspect ratio : 16:9
Frame rate mode : Variable
Frame rate : 29.970 fps
Minimum frame rate : 29.412 fps
Maximum frame rate : 30.303 fps
Color space : YUV
Chroma subsampling : 4:2:0
Bit depth : 8 bits
Scan type : Progressive
Bits/(Pixel*Frame) : 0.109
Stream size : 3.17 GiB (95%)


Audio
ID : 2
Codec ID : 40
Duration : 2h 31mn
Bit rate mode : Constant
Bit rate : 155 Kbps
Channel(s) : 2 channels
Channel positions : Front: L R
Sampling rate : 44.1 KHz
Compression mode : Lossy
Stream size : 167 MiB (5%)


fileup.cc/f8eld9xtuc20
rapidgator.net/file/ab643028fce7c950fea7a9b1835b552e
uploadgig.com/file/download/63e1d3fe57c32211
nitroflare.com/view/F960E3602ECEB0A



ddl.to/uyrvw4dml3fs
ddl.to/xh3hh0jxr5i0
ddl.to/dotmp6cc1nzz
ddl.to/udvoiiln3itp

filefox.cc/el66i5co5meb
filefox.cc/38jyuxuonq5d
filefox.cc/c2bmwfqza5t6
filefox.cc/vbo3nmihkm0i

rockfile.co/2cvw913lnsdf.html
rockfile.co/rnif5pu3zzc0.html
rockfile.co/re9ofv6uogpx.html
rockfile.co/cdt30vkp4lvq.html

nitroflare.com/view/D97321FEAC84086
nitroflare.com/view/FD0DA654A22A9D3
nitroflare.com/view/E84A7872227AAE9
nitroflare.com/view/4BAA8F3BB18B0F2
NWA Hard Times PPV 2020 720p WEBRIP x264-WH

About PH.M.H

[Wrestling Best Uploader]

View all posts by PH.M.H →

4 Comments on “NWA Hard Times PPV 2020 720p WEBRIP x264-WH”

  1. what happened to you

    all links are very slow does not pass 100kb/per second not rockfile who is 300kb/per second, i am not gonna make my pc run for 18 hours to download this

    where is dropapk and dailyuploads the fast servers 4000kb/per second

    atleast put 1 server fast for the ones who does not have a premuim account in these sites

    1. normal SD versions have dropapk , also rar files were and will uploaded
      on ddl.to / filefox / Rockfile All these are free bro
      have a fun and thanks as u being a WH Fan From day one

  2. thanks for response but i did not find an SD version of this ppv nwa hard times

    ddl.to / filefox the speed of downloading from them 55kb/per second

    however i get to manage downloading it from rockfile it took me 4 long hours

    anyway (thanks for the free content you put bro) but i had to let you know that :

    those are very very very slow servers

    thank you then now forever

Leave a Reply

Your email address will not be published. Required fields are marked *