NWA Hard Times PPV 2020 1080p WebDL-Me4Life

Spread the love

NWA Hard Times PPV 2020 1080p WebDL-Me4Life

NWA Hard Times PPV 2020 1080p WebDL-Me4Life

General
Complete name : NWA.Hard.Times.PPV.1080p.WebDL.Me4Life.mp4
Format : MPEG-4
File size : 4.19 GiB
Duration : 2 h 30 min
Overall bit rate : 4 000 kb/s
Codirector : codirector
Production studio : studio

Video
ID : 1
Format : AVC
Codec ID : avc1
Codec ID/Info : Advanced Video Coding
Duration : 2 h 30 min
Bit rate : 3 869 kb/s
Width : 1 920 pixels
Height : 1 080 pixels
Display aspect ratio : 16:9
Frame rate mode : Variable
Frame rate : 29.970 (29970/1000) FPS
Color space : YUV
Chroma subsampling : 4:2:0
Bit depth : 8 bits
Scan type : Progressive
Bits/(Pixel*Frame) : 0.062
Stream size : 4.06 GiB (97%)
Codec configuration box : avcC

Audio
ID : 2
Format : AAC LC
Codec ID : mp4a-40-2
Duration : 2 h 30 min
Bit rate mode : Constant
Bit rate : 120 kb/s
Channel(s) : 2 channels
Channel layout : L R
Sampling rate : 48.0 kHz
Frame rate : 46.875 FPS (1024 SPF)
Compression mode : Lossy
Stream size : 128 MiB (3%)
Default : Yes
Alternate group : 1

NWA Hard Times PPV 2020 1080p WebDL-Me4Life
NWA Hard Times PPV 2020 1080p WebDL-Me4Life
NWA Hard Times PPV 2020 1080p WebDL-Me4Life

Buy Premium or Extend From here to Support WH

NWA Hard Times PPV 2020 1080p WebDL-Me4Life

About PH.M.H

[Wrestling Best Uploader]

View all posts by PH.M.H