MCW Clash of the Titans 2020 1080p WEB x264-WH

MCW Clash of the Titans 2020 1080p WEB x264-WH

MCW Clash of the Titans 2020 1080p WEB x264-WH

General
Complete name : MCW.Clash.of.the.Titans.2020.1080p.WEB.x264-WH.mp4
Format : MPEG-4
Format profile : Base Media
Codec ID : isom (isom/iso2/avc1/mp41)
File size : 1.83 GiB
Duration : 59 min 35 s
Overall bit rate mode : Variable
Overall bit rate : 4 386 kb/s

Video
ID : 1
Format : AVC
Duration : 59 min 34 s
Source duration : 59 min 35 s
Bit rate : 4 185 kb/s
Width : 1 912 pixels
Original width : 1 920 pixels
Height : 1 088 pixels
Original height : 1 080 pixels
Display aspect ratio : 16:9
Frame rate mode : Variable
Frame rate : 25.000 FPS
Minimum frame rate : 5.000 FPS
Maximum frame rate : 100.000 FPS
Color space : YUV
Chroma subsampling : 4:2:0
Bit depth : 8 bits
Scan type : Progressive
Bits/(Pixel*Frame) : 0.080
Stream size : 1.74 GiB (95%)

Audio
ID : 2
Format : AAC LC
Codec ID : mp4a-40-2
Duration : 59 min 35 s
Source duration : 59 min 35 s
Bit rate mode : Variable
Bit rate : 192 kb/s
Maximum bit rate : 293 kb/s
Channel(s) : 2 channels
Channel layout : L R
Sampling rate : 48.0 kHz
Frame rate : 46.875 FPS (1024 SPF)
Compression mode : Lossy
Stream size : 81.8 MiB (4%)

 107 total views,  1 views today

About PH.M.H

[Wrestling Best Uploader]

View all posts by PH.M.H

One Comment on “MCW Clash of the Titans 2020 1080p WEB x264-WH”

Leave a Reply

Your email address will not be published. Required fields are marked *