GCW The Wrld on GCW Part 2 720p

GCW The Wrld on GCW Part 2 720p

GCW 2020 06 20 The Wrld on GCW Part 2 720p WEBRip x264-NOGRP

GCW The Wrld on GCW Part 2 720p

Preview : GCW are back! June 20th straight from Celebration Plaza Amphitheater, Indianapolis.
The lineup will be exciting! Some of them are already announced fights , Expect a thrilling event, full of excitement and action! GCW is a fan favorite and The Wrld on GCW, Part 2 will surely deliver!

General
Complete name : GCW.2020.06.20.The.Wrld.on.GCW.Part.2.720p.mp4
Format : MPEG-4
Format profile : Base Media
Codec ID : isom – Wrld
File size : 3.25 GiB
Duration : 3 h 48 min
Overall bit rate : 2 039 kb/s
Writing application : Lavf58.29.100

Video
ID : Wrld
Format : AVC
Codec ID : avc1
Duration : 3 h 48 min
Bit rate : 1 935 kb/s
Width : 1 280 pixels
Height : 720 pixels
Display aspect ratio : 16:9
Frame rate mode : Variable
Frame rate : 29.970 (29970/1000) FPS
Minimum frame rate : 0.100 FPS
Maximum frame rate : 30.303 FPS
Color space : YUV
Chroma subsampling : 4:2:0
Bit depth : 8 bits
Scan type : Progressive
Bits/(Pixel*Frame) : 0.070
Stream size : 3.08 GiB (95%)
Codec configuration box : avcC – GCW

Audio
ID : Wrld
Format : AAC LC
Codec ID : mp4a-40-2
Duration : 3 h 48 min
Bit rate mode : Constant
Bit rate : 96.0 kb/s
Channel(s) : 2 channels
Channel layout : L R
Sampling rate : 48.0 kHz
Frame rate : 46.875 FPS (1024 SPF)
Compression mode : Lossy
Stream size : 155 MiB (5%)
Default : Wrld
Alternate group : GCW

Single download Links

Rapidgator // NitroFlare // Uploadgig // RockFile // ddl.to

References

homepage Premium Site

 621 total views,  2 views today

GCW The Wrld on GCW Part 2 720p

WH : Source OF Wrestling Releases / Home OF WH Releases

Buy Premium or Renew From WH Links to Keep it Alive

About PH.M.H

[Wrestling Best Uploader]

View all posts by PH.M.H →

One Comment on “GCW The Wrld on GCW Part 2 720p”

Leave a Reply

Your email address will not be published. Required fields are marked *