GCW Ready to Die 2020 720p WEBRIP x264-WH

GCW Ready to Die 2020 720p WEBRIP x264-WH

download GCW Ready to Die 2020 720p

GCW Ready to Die 2020 720p WEBRIP x264-WH

General
Complete name : GCW.2020.02.05.Ready.to.Die.2020.720p.WEBRIP.x264-WH.mp4
Format : MPEG-4
Format profile : Base Media
Codec ID : isom (isom/iso2/avc1/mp41)
File size : 1.87 GiB
Duration : 1 h 24 min
Overall bit rate : 3 169 kb/s
Writing application : Lavf58.35.104
Copyright : copyright
Comment : description

Video
Codec ID : avc1
Codec ID/Info : Advanced Video Coding
Duration : 1 h 24 min
Bit rate : 3 001 kb/s
Width : 1 280 pixels
Height : 720 pixels
Display aspect ratio : 16:9
Frame rate mode : Variable
Frame rate : 30.000 FPS
Minimum frame rate : 29.412 FPS
Maximum frame rate : 30.303 FPS
Color space : YUV
Chroma subsampling : 4:2:0
Bit depth : 8 bits
Scan type : Progressive
Bits/(Pixel*Frame) : 0.109
Stream size : 1.77 GiB (95%)
Codec configuration box : avcC

Audio
ID : 2
Format : AAC LC
Codec ID : mp4a-40-2
Duration : 1 h 24 min
Bit rate mode : Constant
Bit rate : 160 kb/s
Channel(s) : 2 channels
Channel layout : L R
Sampling rate : 44.1 kHz
Frame rate : 43.066 FPS (1024 SPF)
Compression mode : Lossy
Stream size : 96.5 MiB (5%)
Title : Track1
Default : Yes
Alternate group : 1

 178 total views,  1 views today

GCW Ready to Die 2020 720p WEBRIP x264-WH

WH : Source OF Wrestling Releases / Home OF WH Releases

Buy Premium or Renew From WH Links to Keep it Alive

About PH.M.H

[Wrestling Best Uploader]

View all posts by PH.M.H →

3 Comments on “GCW Ready to Die 2020 720p WEBRIP x264-WH”



  1. Watch GCW Ready to Die 2020 – 2/5/20 – 5th Feb 2020

    Watch GCW Ready to Die 2020 - 2/5/20 - 5th Feb 2020

    Watch GCW Ready to Die 2020 – 2/5/20 – 5th Feb 2020 – Full Show Online Free

    Download GCW Ready to Die 2020 – 2/5/20 – 5th Feb 2020 HD / 720p

Leave a Reply

Your email address will not be published. Required fields are marked *