GCW Just Being Honest 2020 720p WEBRIP x264-WH

GCW Just Being Honest 2020 720p WEBRIP x264-WH

GCW Just Being Honest 2020 720p WEBRIP x264-WH
DescriptionGCW.Just.Being.Honest.2020.720p.WEBRIP.x264-WH

General
name : GCWJust.Being.Honest.2020.720p.WEBRIP.x264-WH.mp4
Format                          : MPEG-4
Codec ID                        : isom
File size                        : 4.41 GiB
Duration                        : 3h 19mn
Overall bit rate                : 3 171 Kbps
Writing application              : Lavf58.25.100
Copyright                        : copyright
Comment                          : description

Video
ID                              : 1
Codec ID                        : avc1
Codec ID/Info                    : Advanced Video Coding
Duration                        : 3h 19mn
Bit rate mode                    : Variable
Bit rate                        : 3 000 Kbps
Width                            : 1 280 pixels
Height                          : 720 pixels
Display aspect ratio            : 16:9
Frame rate mode                  : Variable
Frame rate                      : 29.970 fps
Minimum frame rate              : 29.412 fps
Maximum frame rate              : 30.303 fps
Color space                      : YUV
Chroma subsampling              : 4:2:0
Bit depth                        : 8 bits
Scan type                        : Progressive
Bits/(Pixel*Frame)              : 0.109
Stream size                      : 4.17 GiB (95%)


Audio
ID                              : 2
Codec ID                        : 40
Duration                        : 3h 19mn
Bit rate mode                    : Constant
Bit rate                        : 160 Kbps
Channel(s)                      : 2 channels
Channel positions                : Front: L R
Sampling rate                    : 44.1 KHz
Compression mode                : Lossy
Stream size                      : 229 MiB (5%)

fileup.cc/8jk6dy6g57pq
nitroflare.com/view/E5058382A02998D
rapidgator.net/file/bc04811ace2bbeec03ab0e197ced0470
uploadgig.com/file/download/dd7C89900b0138EC

ddl.to/xwes1qvchma3
ddl.to/nc8p3pn1e9zh
ddl.to/uopyxqk2b1ui
ddl.to/qqwk7hqgkf4l
ddl.to/0s46e9h4vwqj

filefox.cc/oid3vrfdci9l
filefox.cc/in1i5ra00brz
filefox.cc/rg0mjapq3dq7
filefox.cc/gprf4w2bf94s
filefox.cc/bio3fvry43sa

rockfile.co/kimpscrsbzy5.html
rockfile.co/omsin4yzvzg5.html
rockfile.co/y2ncpoe1lznd.html
rockfile.co/x0zztr8rszui.html
rockfile.co/egq30clfty9c.html

nitroflare.com/view/041D5B8AD41B612
nitroflare.com/view/1B6A3007C187E0D
nitroflare.com/view/3A5F41E725E5618
nitroflare.com/view/073A83BC3FB466B
nitroflare.com/view/7AD46ECB33C55D0

 167 total views,  1 views today

GCW Just Being Honest 2020 720p WEBRIP x264-WH

WH : Source OF Wrestling Releases / Home OF WH Releases

Buy Premium or Renew From WH Links to Keep it Alive

About PH.M.H

[Wrestling Best Uploader]

View all posts by PH.M.H →

One Comment on “GCW Just Being Honest 2020 720p WEBRIP x264-WH”

Leave a Reply

Your email address will not be published. Required fields are marked *