GCW 2019 06 20 Crushed Up 720p

GCW 2019 06 20 Crushed Up 720p WEB h264-iNDYHEEL

Download GCW Crushed Up 2019 720p At free Hosts

GCW 2019 06 20 Crushed Up 720p

GCW Crushed Up 06/20/19 720p

DescriptionGCW.2019.06.20.Crushed.Up.720p.WEB.h264-iNDYHEEL 

– 

Singles Match 
KTB vs. SHLAK 

Singles Match 
Jimmy Lloyd vs. Ophidian 

Singles Match 
Conor Claxton vs. Matt Tremont 

Singles Match 
Colby Corino vs. Ruckus 

Singles Match 
Dan Maff vs. Matthew Justice 

GCW Heavyweight Title Match 
Nick Gage (c) vs. Tony Deppen

General
Complete name : GCW.2019.06.20.Crushed.Up.720p.WEB.h264-iNDYHEEL
Format : MPEG-4
Format profile : Base Media
Codec ID : isom (isom/iso2/avc1/mp41)
File size : 2.41 GiB
Duration : 2 h 47 min
Overall bit rate : 2 058 kb/s
Writing application : Lavf58.27.103

Video
ID : 1
Format : AVC
Format/Info : Advanced Video Codec
Format profile : [email protected]
Format settings : CABAC / 4 Ref Frames
Format settings, CABAC : Yes
Format settings, Reference : 4 frames
Codec ID : avc1
Codec ID/Info : Advanced Video Coding
Duration : 2 h 47 min
Bit rate : 1 918 kb/s
Width : 1 280 pixels
Height : 720 pixels
Display aspect ratio : 16:9
Frame rate mode : Variable
Frame rate : 29.970 (30000/1001) FPS
Minimum frame rate : 29.412 FPS
Maximum frame rate : 30.303 FPS
Color space : YUV
Chroma subsampling : 4:2:0
Bit depth : 8 bits
Scan type : Progressive
Bits/(Pixel*Frame) : 0.069
Stream size : 2.25 GiB (93%)
Codec configuration box : avcC

Audio
ID : 2
Format : AAC LC
Format/Info : Advanced Audio Codec Low Complexity
Codec ID : mp4a-40-2
Duration : 2 h 47 min
Bit rate mode : Constant
Bit rate : 129 kb/s
Channel(s) : 2 channels
Channel layout : L R
Sampling rate : 48.0 kHz
Frame rate : 46.875 FPS (1024 SPF)
Compression mode : Lossy
Stream size : 155 MiB (6%)
Default : Yes
Alternate group : 1

GCW 2019 06 20 Crushed Up 720p

Rapidgator

rg.to/file/528fbfdf20dbaacfdf8cb7c3e6003123

dailyuploads

dailyuploads.net/e18kfh4wq6o7

nitroflare

nitroflare.com/view/622E11DAC785F34

1fichier.com/?uqwtk79p0fyv3edvngrm
bayfiles.com/AaG4iawcn4
file.bz/BdGei5w7n7
www.filefactory.com/file/6fv4f6jma8cx
multiup.org/download/673b48ac66d0bd5533184562d8a1190b
turbobit.net/qhjekc05hc7z.html
uptobox.com/pcswpb7g01v5

verystream.com/stream/4wLmXnNUxeC

openload.co/f/kXz5G5_BkEc

 137 total views,  2 views today

GCW 2019 06 20 Crushed Up 720p

WH : Source OF Wrestling Releases / Home OF WH Releases

Buy Premium or Renew From WH Links to Keep it Alive

About PH.M.H

[Wrestling Best Uploader]

View all posts by PH.M.H →

3 Comments on “GCW 2019 06 20 Crushed Up 720p”

  1. million thanks 🙂 KTB vs. SHLAK . this must be war or something like that. Shlak is cool ! 🙂

    Nick Gage vs. Tony Deppen, nothing to say ….

    Ruckus himself, I know him.

    Conor Claxton wrestle more and more on GCW, actually he comes from CZW.

    just a side question, was GCW BYW Backyard Wrestling filmed and released somewhere ? I do not know it was saying it was a Privat event and maybe not filmed ?

  2. Yeah GCW BYW was Secret or Privat, something like that. iNDYHEEL would be the best, I can not watch stream, my internet is to slow.

    * dailyuploads.net :
    I had try out in first time dailyuploads. This hoster is good for free user. 🙂

Leave a Reply

Your email address will not be published. Required fields are marked *