Allie Kat vs Matthew Justice GCW Jimmy All The Way 720p

Allie Kat vs Matthew Justice GCW Jimmy All The Way 720p WEBRIP x264-WH

Allie Kat vs Matthew Justice GCW Jimmy All The Way 720p

General
Complete name : Allie.Kat.vs.Matthew.Justice.GCW.Jimmy.All.The.Way.720p.WEBRIP.x264-WH.mp4
Format : MPEG-4
Format profile : Base Media
Codec ID : isom
File size : 510 MiB
Duration : 22mn 39s
Overall bit rate : 3 149 Kbps
Writing application : Lavf56.15.102

Video
ID : 1
Format : AVC
Format/Info : Advanced Video Codec
Format profile : [email protected]
Format settings, CABAC : No
Format settings, ReFrames : 2 frames
Codec ID : avc1
Codec ID/Info : Advanced Video Coding
Duration : 22mn 39s
Bit rate mode : Variable
Bit rate : 3 000 Kbps
Width : 1 280 pixels
Height : 720 pixels
Display aspect ratio : 16:9
Frame rate mode : Constant
Frame rate : 30.000 fps
Color space : YUV
Chroma subsampling : 4:2:0
Bit depth : 8 bits
Scan type : Progressive
Bits/(Pixel*Frame) : 0.109
Stream size : 484 MiB (95%)
Writing library : x264 core 142
Language : English

Audio
ID : 2
Format : AAC
Format/Info : Advanced Audio Codec
Format profile : LC
Codec ID : 40
Duration : 22mn 39s
Bit rate mode : Variable
Bit rate : 152 Kbps
Maximum bit rate : 192 Kbps
Channel(s) : 2 channels
Channel positions : Front: L R
Sampling rate : 44.1 KHz
Compression mode : Lossy
Stream size : 24.6 MiB (5%)
Language : English

Allie Kat vs Matthew Justice GCW Jimmy All The Way 720p
Allie Kat vs Matthew Justice GCW Jimmy All The Way 720p
Allie Kat vs Matthew Justice GCW Jimmy All The Way 720p
Allie Kat vs Matthew Justice GCW Jimmy All The Way 720p
Allie Kat vs Matthew Justice GCW Jimmy All The Way 720p

1fichier
libittarc.com/2QAN
anonfile
libittarc.com/2QAO
clicknupload
libittarc.com/2QAP
nitroflare
libittarc.com/2QAQ
dailyuploads
libittarc.com/2QAR
ddl.to
libittarc.com/2QAS
dropapk
libittarc.com/2QAT
earn4files
libittarc.com/2QAU
file.bz
libittarc.com/2QAV
filerio
libittarc.com/2QAW
filestore
libittarc.com/2QAX
fileup
libittarc.com/2QAY
multiup
libittarc.com/2QAZ
rapidgator
libittarc.com/2QAa
rockfile
libittarc.com/2QAb
speed-down
libittarc.com/2QAc
upload
libittarc.com/2QAd
uploadgig
libittarc.com/2QAe
uptobox
libittarc.com/2QAf

 193 total views,  1 views today

Allie Kat vs Matthew Justice GCW Jimmy All The Way 720p

WH : Source OF Wrestling Releases / Home OF WH Releases

Buy Premium or Renew From WH Links to Keep it Alive

About PH.M.H

[Wrestling Best Uploader]

View all posts by PH.M.H →

2 Comments on “Allie Kat vs Matthew Justice GCW Jimmy All The Way 720p”

Leave a Reply

Your email address will not be published. Required fields are marked *