Evolve 137 2019 10 11 540p WEBRIP x264-WH

Evolve 137 2019 10 11 540p WEBRIP x264-WH

dOWNLOAD Evolve 137 2019 10 11 540p – Evolve 137 10/11/19

Evolve 137 2019 10 11 540p WEBRIP x264-WH

Evolve 137 2019 10 11 540p WEBRIP x264-WH

General
Complete name : Evolve.137.2019.10.11.540p.WEBRIP.x264-WH.mp4
Format : MPEG-4
Format profile : Base Media
Codec ID : isom
File size : 2.11 GiB
Duration : 3h 7mn
Overall bit rate : 1 612 Kbps
Encoded date : UTC 2019-09-26 20:46:25
Tagged date : UTC 2019-09-26 20:46:25
Writing application : Lavf56.15.102

Video
ID : 1
Format : AVC
Format/Info : Advanced Video Codec
Format profile : [email protected]
Format settings, CABAC : No
Format settings, ReFrames : 2 frames
Codec ID : avc1
Codec ID/Info : Advanced Video Coding
Duration : 3h 7mn
Bit rate mode : Variable
Bit rate : 1 500 Kbps
Width : 960 pixels
Height : 540 pixels
Display aspect ratio : 16:9
Frame rate mode : Constant
Frame rate : 30.000 fps
Color space : YUV
Chroma subsampling : 4:2:0
Bit depth : 8 bits
Scan type : Progressive
Bits/(Pixel*Frame) : 0.096
Stream size : 1.96 GiB (93%)
Writing library : x264 core 142
Language : English
Encoded date : UTC 2019-09-26 20:46:25
Tagged date : UTC 2019-09-26 20:46:25

Audio
ID : 2
Format : AAC
Format/Info : Advanced Audio Codec
Format profile : LC
Codec ID : 40
Duration : 3h 7mn
Bit rate mode : Variable
Bit rate : 104 Kbps
Maximum bit rate : 128 Kbps
Channel(s) : 2 channels
Channel positions : Front: L R
Sampling rate : 44.1 KHz
Compression mode : Lossy
Stream size : 139 MiB (6%)
Language : English
Encoded date : UTC 2019-09-26 20:46:25
Tagged date : UTC 2019-09-26 20:46:25

Evolve 137 2019 10 11 540p WEBRIP x264-WH

fileup

fileup.cc/d3vuwfkm8ig8

uploadgig
uploadgig.com/file/download/24f6c7724f3B941c

rapidgator
rapidgator.net/file/c185027a293f1ca011102f2738b809f3

4downfile
4downfile.org/qjsui2grja96

4downfile.org/oz4pvicnme2h
clicknupload.org/bfftu9lfzmug
dropapk.to/1ufjjla18t3p
earn4files.com/xczhaat7f2ul
fileup.cc/nderydw6qrez
nitroflare.com/view/C4399FF7CBAA583
rapidgator.net/file/74f2b9b5906ad75d15ea8dd4e65d7ac0
upload.ac/uwmim2eu5tw4
uploadgig.com/file/download/7094e42b2DB57b33

 118 total views,  2 views today

Evolve 137 2019 10 11 540p WEBRIP x264-WH

Buy Premium or Extend From here to Support WH

About PH.M.H

[Wrestling Best Uploader]

View all posts by PH.M.H

6 Comments on “Evolve 137 2019 10 11 540p WEBRIP x264-WH”

  1. COULD YOU PLEASE UPLOAD THIS SHOW ON EARN4FILES BECAUSE ALL THESE LINKS ARE VERY VERY VERY SLOW EVEN I AM UNABLE TO DOWNLOAD THIS SHOW THANKS IN ADVANCE

Leave a Reply

Your email address will not be published. Required fields are marked *