CZW 21st Anniversary 2020 720p WEBRip x246-WH

Spread the love

CZW 21st Anniversary 2020 720p WEBRip x246-WH

CZW 21st Anniversary 2020 720p WEBRip x246-WH

General
Complete name : CZW.21st.Anniversary.2020.720p.WEBRip.x246-WH.mp4
Format : MPEG-4
Format profile : Base Media
Codec ID : isom
File size : 3.77 GiB
Duration : 2h 50mn
Overall bit rate : 3 169 Kbps
Writing application : Lavf58.35.104
Copyright : copyright
Comment : description

Video
Format settings, CABAC : No
Format settings, ReFrames : 1 frame
Codec ID : avc1
Duration : 2h 50mn
Bit rate mode : Variable
Bit rate : 3 000 Kbps
Width : 1 280 pixels
Height : 720 pixels
Display aspect ratio : 16:9
Frame rate mode : Variable
Frame rate : 30.000 fps
Minimum frame rate : 29.412 fps
Maximum frame rate : 30.303 fps
Color space : YUV
Chroma subsampling : 4:2:0
Bit depth : 8 bits
Scan type : Progressive
Bits/(Pixel*Frame) : 0.109
Stream size : 3.57 GiB (95%)

Audio
ID : 2
Format : AAC
Format/Info : Advanced Audio Codec
Format profile : LC
Codec ID : 40
Duration : 2h 50mn
Bit rate mode : Constant
Bit rate : 161 Kbps
Channel(s) : 2 channels
Channel positions : Front: L R
Sampling rate : 44.1 KHz
Compression mode : Lossy
Stream size : 196 MiB (5%)


CZW 21st Anniversary 2020 720p WEBRip x246-WH

About PH.M.H

[Wrestling Best Uploader]

View all posts by PH.M.H →